<?xml version="1.0" standalone="no"?>
<!DOCTYPE svg PUBLIC "-//W3C//DTD SVG 1.1//EN" "http://www.w3.org/Graphics/SVG/1.1/DTD/svg11.dtd" >
<svg xmlns="http://www.w3.org/2000/svg">
<metadata></metadata>
<defs>
<font id="ArvoRegular" horiz-adv-x="1542" >
<font-face units-per-em="2048" ascent="1638" descent="-410" />
<missing-glyph horiz-adv-x="448" />
<glyph horiz-adv-x="0" />
<glyph horiz-adv-x="0" />
<glyph unicode="&#xd;" horiz-adv-x="0" />
<glyph unicode=" " horiz-adv-x="448" d="M0 0z" />
<glyph unicode="!" horiz-adv-x="682" d="M211 120.5q0 26.5 10.5 50t28.5 41.5q38 38 78 38t63.5 -10.5t40.5 -27.5q39 -39 39 -78.5t-10.5 -63.5t-28.5 -42q-37 -40 -77 -40t-64 10.5t-41.5 29t-28 42.5t-10.5 50.5zM211 1577h260l-41 -1167h-178z" />
<glyph unicode="&#x22;" horiz-adv-x="651" d="M41 1577h228l-18 -518h-169zM405 1577h230l-47 -518h-169z" />
<glyph unicode="#" horiz-adv-x="1423" d="M20 389l41 195h239l82 415h-253l41 199h252l63 318h191l-62 -318h351l63 318h191l-62 -318h225l-39 -199h-225l-81 -415h239l-37 -195h-240l-75 -389h-193l76 389h-351l-75 -389h-197l77 389h-241zM494 584h351l81 415h-351z" />
<glyph unicode="$" horiz-adv-x="1210" d="M150 303v172h251v-11l2 1q0 -166 222 -166q100 0 158.5 39t58.5 111q0 93 -134 130q-36 10 -69 19l-176 47q-260 68 -260 299q0 117 82 195q81 77 231 99v341h197v-342q164 -29 247 -147h101v-172h-209l-23 -3v3h-2v22q-10 65 -65 105t-155 40t-157 -35.5t-57 -87.5 t18.5 -77t46.5 -40.5t61.5 -24t64.5 -17.5l174 -53q141 -43 207 -105q75 -71 75 -186q0 -123 -90 -211t-237 -112v-322h-197v322q-172 28 -247 167h-119z" />
<glyph unicode="%" horiz-adv-x="1730" d="M75 1166q0 68 25 128.5t70 105.5q99 99 247 99q149 0 246 -99q96 -97 96 -233q0 -138 -94 -234q-97 -99 -248 -99q-153 0 -249 99q-93 97 -93 233zM212 -16l1040 1556h195l-1041 -1556h-194zM244 1167q0 -71 50.5 -121.5t122.5 -50.5q70 0 120 50t50 122t-50 121 q-49 47 -121 47q-35 0 -66.5 -12.5t-55.5 -34.5q-50 -49 -50 -121zM941 322q0 68 25 128t70 106q100 99 247 99t247 -99q95 -96 95 -233q0 -139 -93 -235q-98 -99 -249 -99t-249 99q-93 96 -93 234zM1111 323q0 -71 50.5 -121.5t121.5 -50.5q70 0 120 50t50 122 q0 71 -50 119q-50 49 -120 49q-71 0 -121.5 -48.5t-50.5 -119.5z" />
<glyph unicode="&#x26;" horiz-adv-x="1468" d="M143 426q0 182 145 316q44 40 136 87l-66 64q-90 83 -124 197q-11 39 -11 98t31 128t84 120q116 110 280 110q172 0 290 -114q116 -112 116 -265q0 -157 -98 -253q-75 -71 -210 -139l306 -285q53 121 82 274h188q-37 -207 -141 -393l276 -256l-139 -121l-236 228 q-191 -236 -446 -236q-194 0 -328.5 127t-134.5 313zM322 419.5q0 -47.5 22.5 -97t61.5 -85.5q85 -77 208 -77q186 0 320 176l-380 367l-81 -37q-104 -43 -140 -162q-11 -37 -11 -84.5zM397 1169q0 -96 95 -186l89 -83q138 61 203 126q62 67 62 141q0 84 -68 150 q-67 65 -160 65q-98 0 -160 -62q-61 -61 -61 -151z" />
<glyph unicode="'" horiz-adv-x="340" d="M37 1059v518l227 16l-48 -534h-179z" />
<glyph unicode="(" horiz-adv-x="721" d="M141 590q0 415 227 804q72 124 162 236l138 -110q-241 -305 -308 -682q-22 -123 -22 -248q0 -512 330 -930l-138 -111q-282 351 -362 761q-27 138 -27 280z" />
<glyph unicode=")" horiz-adv-x="721" d="M53 -340q241 305 308 682q22 123 22 248q0 377 -189 719q-62 111 -141 211l137 110q390 -485 390 -1040q0 -414 -228 -806q-72 -123 -162 -235z" />
<glyph unicode="*" horiz-adv-x="836" d="M59 1257l39 125l252 -82v246h133v-251l248 81l37 -119l-249 -80l157 -214l-109 -72l-149 206l-148 -204l-108 70l155 212z" />
<glyph unicode="+" horiz-adv-x="1311" d="M143 608v183h420v419h182v-419h422v-183h-422v-422h-182v422h-420z" />
<glyph unicode="," horiz-adv-x="569" d="M20 -287l185 570l219 -86l-260 -537z" />
<glyph unicode="-" horiz-adv-x="737" d="M94 496v172h551v-172h-551z" />
<glyph unicode="." horiz-adv-x="456" d="M96 120.5q0 26.5 10.5 50t28.5 41.5q40 38 79 38t62.5 -10.5t41.5 -27.5q38 -39 38 -78.5t-10.5 -63.5t-27.5 -42q-38 -40 -78 -40t-63.5 10.5t-41.5 29t-28.5 42.5t-10.5 50.5z" />
<glyph unicode="/" horiz-adv-x="848" d="M37 -29l600 1598h174l-600 -1598h-174z" />
<glyph unicode="0" horiz-adv-x="1330" d="M88 756q0 173 38 323.5t102 241.5t161.5 155t263 64t272.5 -51t177 -157q125 -190 125 -570q0 -553 -299 -719q-110 -61 -273 -61q-567 0 -567 774zM293 759.5q0 -121.5 12.5 -231t50.5 -191.5q84 -177 299 -177q218 0 297 177q72 163 72 425q0 279 -68 422 q-88 184 -299 184q-119 0 -188 -50t-103 -120.5t-53.5 -193.5t-19.5 -244.5z" />
<glyph unicode="1" horiz-adv-x="858" d="M82 1114v209l422 236h80v-1387h149v-172h-491v172h147v1109z" />
<glyph unicode="2" horiz-adv-x="1100" d="M86 1104q2 187 134 314q127 124 308 124q201 0 327 -122q124 -120 124 -304q0 -166 -176 -377l-473 -563h647v-176h-889v147l533 644q120 142 153 233q17 44 17 93t-20 93t-55 77q-75 71 -190 71q-109 0 -180 -65q-76 -70 -80 -189h-180z" />
<glyph unicode="3" horiz-adv-x="1110" d="M41 365h192q29 -93 103.5 -146t189.5 -53q108 0 189 80q84 82 84 198q0 123 -85 200q-82 75 -200 75h-86v151h70q130 0 207 73q75 71 75 171q0 45 -16.5 89.5t-51.5 82.5q-79 86 -210 86q-59 0 -107.5 -20.5t-96.5 -76.5t-52 -124h-190q9 162 141 280q128 115 303 115 q206 0 342 -130q129 -122 129 -286q0 -162 -115 -268q-40 -37 -97 -65q156 -60 210 -230q18 -57 18 -140t-38 -166.5t-103 -144.5q-139 -130 -340 -130q-92 0 -182.5 32.5t-153.5 92.5q-115 110 -129 254z" />
<glyph unicode="4" horiz-adv-x="1251" d="M90 438l2 158l539 920h213l-513 -906h388v250l196 14v-264h226v-172h-226v-266h150v-172h-492v172h146v266h-629z" />
<glyph unicode="5" horiz-adv-x="1139" d="M74 289l164 82q33 -104 120 -169q89 -67 181 -67t153.5 26.5t107.5 72.5q97 99 97 239q0 142 -98 237q-99 95 -250.5 95t-249.5 -105l-147 23v793h854v-166h-689v-456q113 77 237.5 77t218.5 -40t161 -108q143 -144 143 -350q0 -210 -142 -354q-148 -150 -376 -150 q-174 0 -305 89q-124 85 -180 231z" />
<glyph unicode="6" horiz-adv-x="1249" d="M94 488q0 88 33.5 174t83.5 180l371 674h233l-340 -567q80 34 185.5 34t191.5 -34.5t152 -96.5q147 -138 147 -340q0 -245 -159 -393q-149 -139 -374 -139q-210 0 -364 140q-160 146 -160 368zM281 486q0 -154 98 -244q95 -88 244 -88q141 0 239 92q103 96 103 240 q0 157 -111 249q-100 84 -257 84q-73 0 -123.5 -22.5t-95.5 -62.5q-97 -88 -97 -248z" />
<glyph unicode="7" horiz-adv-x="1077" d="M41 1206v310h995v-150q-264 -520 -373.5 -780.5t-163.5 -413.5h126v-172h-443v172h117q165 471 502 1151h-568v-117h-192z" />
<glyph unicode="8" horiz-adv-x="1276" d="M139 442q0 183 137 316q42 42 94 72q-76 55 -120.5 137.5t-44.5 172t33 162t90.5 126.5t135.5 85t165.5 31t164 -31t134.5 -85q125 -116 125 -281q0 -98 -46 -181t-123 -137q161 -95 212 -269q16 -57 16 -135t-38.5 -161t-104.5 -146q-142 -134 -342 -134 q-203 0 -345 134q-143 136 -143 324zM322 446q0 -59 24 -111.5t66 -91.5q90 -85 215 -85q123 0 213 85q90 84 90 203q0 117 -89.5 201t-213.5 84q-126 0 -215.5 -84t-89.5 -201zM377 1142q0 -49 19 -92.5t53 -75.5q74 -71 182 -71q101 0 175 71q75 70 75 169q0 98 -75 169 q-74 70 -175 70q-108 0 -182 -70q-72 -69 -72 -170z" />
<glyph unicode="9" horiz-adv-x="1270" d="M103 1025.5q0 110.5 43 209.5t116 167q149 139 374 139q217 0 368 -139q156 -145 156 -369q0 -88 -33.5 -174t-83.5 -180l-380 -679h-233l349 572q-85 -34 -176 -34t-185.5 34.5t-161 97t-110 154t-43.5 202zM289 1035q0 -157 111 -249q100 -84 238 -84q92 0 142.5 22.5 t95.5 63.5q97 87 97 247q0 154 -98 245q-95 87 -241 87q-71 0 -133 -24t-109 -68q-103 -96 -103 -240z" />
<glyph unicode=":" horiz-adv-x="524" d="M96 120.5q0 26.5 10.5 50t28.5 41.5q40 38 79 38t62.5 -10.5t41.5 -27.5q38 -39 38 -78.5t-10.5 -63.5t-27.5 -42q-38 -40 -78 -40t-63.5 10.5t-41.5 29t-28.5 42.5t-10.5 50.5zM96 906.5q0 26.5 10.5 50t28.5 41.5q40 38 79 38t62.5 -10.5t41.5 -27.5q38 -39 38 -78.5 t-10.5 -63.5t-27.5 -42q-39 -40 -78.5 -40t-63 11t-41.5 29t-28.5 42t-10.5 50.5z" />
<glyph unicode=";" horiz-adv-x="524" d="M-20 -287l184 570l219 -86l-260 -537zM96 906.5q0 26.5 10.5 50t28.5 41.5q40 38 79 38t62.5 -10.5t41.5 -27.5q38 -39 38 -78.5t-10.5 -63.5t-27.5 -42q-39 -40 -78.5 -40t-63 11t-41.5 29t-28.5 42t-10.5 50.5z" />
<glyph unicode="&#x3c;" horiz-adv-x="1001" d="M10 605v156l843 423v-185l-678 -315l678 -315v-185z" />
<glyph unicode="=" horiz-adv-x="922" d="M86 305v141h750v-141h-750zM86 643v141h750v-141h-750z" />
<glyph unicode="&#x3e;" horiz-adv-x="1147" d="M164 184v185l678 315l-678 315v185l843 -423v-156z" />
<glyph unicode="?" horiz-adv-x="1065" d="M121 1137q10 172 136 291q131 123 323 123q191 0 308 -121q107 -111 107 -279q0 -201 -207 -346q-47 -33 -107.5 -85t-86 -128.5t-29.5 -128t-4 -127.5h-180q0 206 28.5 288t65.5 127t93 92.5t99.5 80.5t74.5 64q65 67 65 157.5t-67 160.5q-68 73 -154.5 73t-140.5 -28 t-87 -67q-61 -74 -61 -159zM338 120.5q0 26.5 10.5 50t27.5 41.5q39 38 79 38t63.5 -10.5t41.5 -27.5q38 -39 38 -78.5t-10.5 -63.5t-27.5 -42q-38 -40 -78 -40t-64 10.5t-41.5 29t-28 42.5t-10.5 50.5z" />
<glyph unicode="@" horiz-adv-x="2310" d="M145 494q0 271 136 503q132 225 359 358q232 136 505 136t508 -131q225 -126 357 -341q136 -221 136 -472q0 -218 -116 -387q-76 -113 -196 -160q-60 -23 -130 -23q-172 0 -251 143q-133 -110 -312 -110q-207 0 -344 137q-135 135 -135 332q0 195 138 332 q141 139 363 139q123 0 242 -77v83h184v-663q0 -102 59 -137q24 -15 79.5 -15t104.5 40.5t78 97.5q52 102 52 236t-29 229.5t-81.5 180t-126.5 155t-165 120.5q-192 107 -415 107t-413 -111q-284 -167 -373 -486q-29 -104 -29 -216.5t29 -217t81.5 -195.5t127 -165 t164.5 -127q190 -111 415.5 -111t419.5 117l94 -157q-236 -144 -516 -144q-273 0 -505 136q-226 133 -359 359q-136 232 -136 505zM846 479q0 -120 80 -201q84 -83 228 -83q81 0 149 43.5t102 112.5v253q-55 113 -179 150q-40 12 -94.5 12t-108.5 -23t-93 -62 q-84 -82 -84 -202z" />
<glyph unicode="A" d="M10 0v172h132l472 1344h295l471 -1344h152v-172h-492v172h126l-120 344h-583l-117 -344h156v-172h-492zM520 682h468l-236 678z" />
<glyph unicode="B" horiz-adv-x="1352" d="M143 0v172h144v1171h-144v175l682 -2q184 0 314 -128q129 -128 129 -315q0 -97 -54 -177t-154 -128q153 -81 200 -223q16 -46 16 -117.5t-34.5 -153.5t-94.5 -143q-129 -131 -313 -131h-691zM483 172h353q91 0 161 86q66 82 66 188q0 88 -67 158q-66 70 -160 70h-353 v-502zM483 848h344q95 0 161 70q67 70 67 161q0 101 -67 181q-70 83 -161 83h-344v-495z" />
<glyph unicode="C" horiz-adv-x="1509" d="M72 760.5q0 161.5 53.5 305.5t150 250.5t230 168t281 61.5t248.5 -40q180 -70 293 -212h106v-178h-215q-67 114 -177.5 179t-236.5 65t-222 -49t-165 -131q-144 -175 -144 -420q0 -392 312 -554q93 -49 230 -49q298 0 454 328l176 -83q-38 -108 -129 -208.5t-224.5 -162 t-292 -61.5t-288.5 58.5t-231.5 166.5t-155 256t-53.5 309.5z" />
<glyph unicode="D" horiz-adv-x="1507" d="M143 0v172h144v1171h-144v173h564q308 0 520 -220q134 -139 184 -334q25 -96 25 -201t-25 -202t-71.5 -182t-112.5 -154.5t-147 -118.5q-169 -104 -373 -104h-564zM483 172h236q210 0 359 171.5t149 418.5q0 243 -149 412q-148 169 -359 169h-236v-1171z" />
<glyph unicode="E" horiz-adv-x="1286" d="M143 0v172h144v1171h-144v173h1086v-429h-205v256h-541v-485h455v-172h-455v-514h541v256h205v-428h-1086z" />
<glyph unicode="F" horiz-adv-x="1243" d="M143 0v172h144v1171h-144v173h1086v-429h-205v256h-541v-487h521v-168h-521v-516h152v-172h-492z" />
<glyph unicode="G" horiz-adv-x="1683" d="M72 760.5q0 161.5 53.5 305.5t150 251t230 168t283.5 61t253 -41q178 -70 295 -211h97v-178h-215q-67 114 -177 180q-109 65 -233 65h-4q-126 -1 -222 -50t-165 -132q-144 -175 -144 -419q0 -133 42 -247t107 -185t160.5 -117.5t211.5 -46.5q392 0 487 385h-424v172h641 v-727h-186v304q-110 -228 -371 -291q-80 -19 -195 -19t-240 49.5t-226.5 157.5t-155 256t-53.5 309.5z" />
<glyph unicode="H" horiz-adv-x="1843" d="M143 0v172h144v1172h-144v172h492v-172h-152v-459h877v459h-152v172h492v-172h-144v-1172h144v-172h-492v172h152v545h-877v-545h152v-172h-492z" />
<glyph unicode="I" horiz-adv-x="770" d="M143 0v172h144v1171h-144v173h484v-173h-144v-1171h144v-172h-484z" />
<glyph unicode="J" horiz-adv-x="682" d="M102 -223q213 325 213 428v1138h-165v173h491v-173h-127v-1171q0 -109 -240 -410z" />
<glyph unicode="K" horiz-adv-x="1567" d="M143 0v172h144v1171h-142v173h492v-173h-154v-1171h152v-172h-492zM485 774l662 569v173h348v-173h-119l-664 -559l621 -612h162v-172h-408v172z" />
<glyph unicode="L" horiz-adv-x="1296" d="M143 0v172h144v1171h-144v173h492v-173h-152v-1171h523q32 0 53 20q37 34 37 66v191h190v-449h-1143z" />
<glyph unicode="M" horiz-adv-x="2189" d="M143 0v172h144v1153h-144v191h480l481 -1309l487 1309h455v-191h-143v-1153h143v-172h-492v172h162v1164l-530 -1336h-170l-537 1339v-1167h156v-172h-492z" />
<glyph unicode="N" horiz-adv-x="1624" d="M143 1343v175h408l692 -1245l8 48v1022h-170v173h492v-173h-129v-1343h-256l-705 1257v-1085h156v-172h-492v172h140v1171h-144z" />
<glyph unicode="O" horiz-adv-x="1597" d="M72 760.5q0 161.5 53.5 305.5t150 250.5t230 168t294 61.5t294.5 -61.5t230 -168t149 -250.5t53 -308q0 -332 -204 -558q-96 -107 -229.5 -168.5t-292 -61.5t-288.5 58.5t-232 166.5t-155 256t-53 309.5zM276 758q0 -390 310 -553q94 -49 213 -49q231 0 380 180 q142 173 142 422q0 124 -40.5 239.5t-113 195.5t-168.5 123.5t-207.5 43.5t-208.5 -49t-165 -131q-142 -173 -142 -422z" />
<glyph unicode="P" horiz-adv-x="1272" d="M143 0v172h144v1171h-144v173h613q209 0 336 -104q131 -109 131 -306q0 -170 -130 -285q-134 -119 -341 -119h-269v-530h152v-172h-492zM483 866h273q182 0 240 136q20 45 20 104q0 237 -285 237h-248v-477z" />
<glyph unicode="Q" horiz-adv-x="1597" d="M72 758q0 164 53.5 308t150 250.5t230 168t294 61.5t294.5 -61.5t230 -168t149 -250.5t53 -302t-46.5 -292.5t-130.5 -239.5q-180 -223 -459 -257q65 -17 104 -40t98 -52.5t117 -29.5t102.5 28.5t58.5 87.5l152 -69q-23 -105 -120 -170q-87 -56 -178 -56t-158.5 28 t-141.5 68t-128.5 40t-97.5 -13v179q-278 38 -454 260q-172 218 -172 522zM276 758q0 -398 314 -553q100 -49 214 -49t210.5 49t164.5 131q142 173 142 422q0 124 -40.5 238.5t-113.5 195.5q-151 168 -368 168q-232 0 -381 -180q-142 -173 -142 -422z" />
<glyph unicode="R" horiz-adv-x="1458" d="M143 0v172h144v1171h-144v173h631q208 0 334 -104q133 -110 133 -306q0 -115 -77 -216q-79 -101 -196 -141q85 -37 140 -149q18 -37 29 -80l84 -330h131l2 -190h-295l-113 461q-31 124 -94.5 182.5t-173.5 58.5h-195v-530h152v-172h-492zM483 866h291q182 0 240 134 q20 45 20 104q0 113 -68 176t-216 63h-267v-477z" />
<glyph unicode="S" horiz-adv-x="1210" d="M80 283v172h252q0 -111 23.5 -157t65.5 -76q85 -62 228 -62q210 0 275 136q20 44 20 102t-25.5 100.5t-65.5 72.5q-58 44 -179 82l-219 62q-322 98 -322 405q0 180 134 296q141 122 380 122q235 0 371 -156q43 -48 72 -106h75v-172h-245q0 88 -32 132t-70 68 q-80 48 -166.5 48t-143.5 -17.5t-94 -47.5q-76 -60 -76 -140t23.5 -120.5t59.5 -65t79.5 -38.5t83.5 -28l202 -66q191 -61 277 -153q96 -104 96 -270q0 -188 -146 -313q-147 -126 -374 -126q-383 0 -483 316h-76z" />
<glyph unicode="T" horiz-adv-x="1434" d="M41 1116v400h1352v-400h-205v236h-400v-1180h156v-172h-491v172h139v1180h-346v-236h-205z" />
<glyph unicode="U" horiz-adv-x="1550" d="M113 1343v173h491v-173h-155v-706q0 -242 107 -363q97 -108 273 -108q187 0 281 100q109 115 109 371v706h-164v173h491v-173h-135v-684q0 -319 -170 -504q-161 -175 -416 -175q-249 0 -407 173q-166 183 -166 488v702h-139z" />
<glyph unicode="V" horiz-adv-x="1485" d="M-10 1343v173h492v-173h-132l389 -1169l417 1169h-143v173h492v-173h-131l-491 -1343h-275l-484 1343h-134z" />
<glyph unicode="W" horiz-adv-x="2560" d="M10 1343v173h492v-173h-132l367 -1165l387 1338h299l412 -1338l374 1165h-151v173h492v-173h-132l-433 -1343h-306l-411 1321l-379 -1321h-303l-442 1343h-134z" />
<glyph unicode="X" horiz-adv-x="1500" d="M170 0v172h99l432 603l-408 568h-123v173h492v-173h-146l295 -415l298 415h-159v173h492v-173h-112l-410 -569l428 -602h94v-172h-492v172h185l-324 451l-326 -451h177v-172h-492z" />
<glyph unicode="Y" horiz-adv-x="1354" d="M51 1343v173h492v-173h-144l285 -487l305 487h-158v173h492v-173h-129l-426 -646v-525h156v-172h-492v172h139v530l-402 641h-118z" />
<glyph unicode="Z" horiz-adv-x="1214" d="M51 0v227l900 1116h-687v-256h-196v429h1095v-224l-913 -1120h711v252h196v-424h-1106z" />
<glyph unicode="[" horiz-adv-x="721" d="M238 -377v2083h403v-151h-219v-1780h219v-152h-403z" />
<glyph unicode="\" horiz-adv-x="948" d="M41 1581h162l704 -1606h-162z" />
<glyph unicode="]" horiz-adv-x="721" d="M80 -225h219v1780h-219v151h403v-2083h-403v152z" />
<glyph unicode="^" horiz-adv-x="1229" d="M156 723l403 790h113l403 -790h-143l-315 626l-320 -626h-141z" />
<glyph unicode="_" horiz-adv-x="1024" d="M0 -154h1024v-102h-1024v102z" />
<glyph unicode="`" horiz-adv-x="590" d="M100 1460v17h248l184 -299h-145z" />
<glyph unicode="a" horiz-adv-x="1120" d="M70 274q0 232 238 310q88 28 202.5 28t199.5 -17l1 85q0 160 -131 202q-40 13 -88.5 13t-91.5 -6.5t-80 -16.5q-78 -22 -123 -53l-61 129q118 76 272 102q51 9 120.5 9t141.5 -21.5t122 -66.5q104 -94 104 -281l-1 -518h115v-172h-301v96q-134 -125 -293 -125 q-150 0 -249 89q-97 88 -97 214zM250 292.5q0 -42.5 15 -73t42.5 -51t65.5 -31t79.5 -10.5t78.5 9t70 24q68 32 108 79l1 234h-216q-171 0 -226 -104q-18 -34 -18 -76.5z" />
<glyph unicode="b" horiz-adv-x="1253" d="M57 1384v172h336v-606q144 111 305 111q204 0 334 -145q129 -145 129 -379q0 -246 -143 -401q-141 -152 -386 -152q-131 0 -239 81v-65h-186v1384h-150zM393 229q81 -84 250 -84q137 0 227 97q99 106 99 288q0 169 -95 271q-88 96 -231 96t-250 -111v-557z" />
<glyph unicode="c" horiz-adv-x="1118" d="M92 520q0 239 146 394q145 155 353.5 155t339.5 -137h105v-172h-188q-81 145 -256 145q-133 0 -222 -104q-91 -108 -91 -281q0 -171 92 -276q89 -103 221 -103q195 0 280 183l154 -76q-93 -198 -296 -258q-66 -19 -157 -19t-182.5 40.5t-158.5 113.5q-140 154 -140 395z " />
<glyph unicode="d" horiz-adv-x="1268" d="M92 528q0 241 138 386q139 147 386 147q133 0 236 -74v397h-141v172h327v-1384h152v-172h-338v85q-106 -108 -266 -108q-217 0 -352 143q-142 151 -142 408zM285 530q0 -187 91 -292q86 -99 234 -99t242 98v580q-95 80 -248 80q-137 0 -226 -96q-93 -101 -93 -271z" />
<glyph unicode="e" horiz-adv-x="1175" d="M92 522q0 234 124 382q133 159 364 159q214 0 324 -129q118 -141 118 -440h-746q0 -81 31 -165.5t112.5 -135t184.5 -50.5q155 0 318 93l75 -127q-201 -138 -419 -138q-219 0 -348 139q-138 147 -138 412zM286 639h537q-18 268 -254 268q-67 0 -115.5 -18.5t-82.5 -52.5 q-64 -65 -85 -197z" />
<glyph unicode="f" horiz-adv-x="745" d="M85 885v151h171v162q6 267 200 336q62 22 126.5 22t106.5 -5t75 -13q56 -15 104 -39l-57 -133q-77 41 -176 41q-193 0 -193 -203v-168h240v-151h-240v-713h162v-172h-504v172h156v713h-171z" />
<glyph unicode="g" horiz-adv-x="1200" d="M92 528q0 241 138 386q139 147 386 147q135 0 242 -78v53h186v-995q0 -246 -116.5 -372t-362.5 -126q-184 0 -341 78q-55 27 -101 66l100 151q94 -82 242 -110q47 -9 109 -9t118.5 16t93.5 57q72 80 72 284v15q-108 -114 -272 -114q-217 0 -352 143q-142 151 -142 408z M285 530q0 -187 91 -292q86 -99 241 -99t241 106v567q-96 85 -254 85q-137 0 -226 -96q-93 -101 -93 -271z" />
<glyph unicode="h" horiz-adv-x="1354" d="M100 0v172h156v1212h-142v172h328v-634h6q92 92 224 123q43 10 108 10t132 -23t114 -70q98 -98 98 -294v-496h156v-172h-492v172h142v473q0 119 -60.5 180.5t-176.5 61.5t-251 -107v-608h150v-172h-492z" />
<glyph unicode="i" horiz-adv-x="657" d="M92 864v172h338v-864h156v-172h-492v172h148v692h-150zM207 1402.5q0 26.5 10.5 50t28.5 41.5q38 38 78 38t63.5 -10.5t40.5 -27.5q39 -39 39 -78.5t-10.5 -63.5t-28.5 -42q-37 -40 -77 -40t-64 10.5t-41.5 29t-28 42.5t-10.5 50.5z" />
<glyph unicode="j" horiz-adv-x="604" d="M61 -332q170 25 170 273v923h-147v172h336v-1116q0 -179 -90 -282q-90 -105 -250 -109zM207 1402.5q0 24.5 9.5 45.5t25.5 37q35 35 71.5 35t58 -9.5t37.5 -25.5q35 -35 35 -71t-9.5 -58t-25.5 -38q-34 -36 -71 -36t-58.5 9.5t-37.5 26t-25.5 38.5t-9.5 46.5z" />
<glyph unicode="k" horiz-adv-x="1286" d="M92 1384v172h365v-172h-2v-774h180l246 254h-62v172h393v-172h-131l-315 -325l344 -367h125v-172h-219l-424 463h-137v-291h86v-172h-443v172h170v1212h-176z" />
<glyph unicode="l" horiz-adv-x="666" d="M92 0v172h150v1212h-150v172h336v-1384h156v-172h-492z" />
<glyph unicode="m" horiz-adv-x="2050" d="M100 0v172h144v692h-144v172h330v-121h2q164 140 328 140q232 0 318 -171q191 171 367 171q361 0 361 -387v-496h144v-172h-484v172h146v473q0 119 -60 180.5t-173 61.5q-67 0 -137 -32t-120 -81v-602h143v-172h-483v172h146v473q0 119 -60.5 180.5t-175.5 61.5 t-254 -108v-607h146v-172h-484z" />
<glyph unicode="n" horiz-adv-x="1366" d="M100 0v172h144v692h-144v172h330v-122h2q160 141 328 141q262 0 336 -213q26 -74 26 -174v-496h144v-172h-484v172h146v473q0 119 -60.5 180.5t-175.5 61.5t-254 -108v-607h146v-172h-484z" />
<glyph unicode="o" horiz-adv-x="1225" d="M87 518q0 123 38.5 224t107.5 174q143 150 373 150q232 0 374 -150q144 -151 144 -396q0 -242 -144 -397q-143 -154 -374 -154q-232 0 -375 153q-144 153 -144 396zM283 520q0 -91 25.5 -163t69.5 -123q93 -105 228 -105q141 0 232 105q94 107 94 284q0 184 -94 289 q-87 99 -232 99q-138 0 -228 -99q-95 -105 -95 -287z" />
<glyph unicode="p" horiz-adv-x="1249" d="M59 864v172h330v-86q144 111 305 111q204 0 334 -145q129 -145 129 -379q0 -248 -143 -405q-143 -155 -375 -155q-121 0 -248 59v-335h162v-172h-492v172h142v1163h-144zM391 227q85 -88 248 -88q137 0 227 99q99 109 99 292q0 169 -95 271q-88 96 -231 96t-248 -109 v-561z" />
<glyph unicode="q" horiz-adv-x="1206" d="M92 528q0 241 138 386q139 147 382 147q129 0 236 -71v46h186v-1335h156v-172h-492v172h150v380q-106 -104 -262 -104q-217 0 -352 143q-142 151 -142 408zM285 530q0 -187 91 -292q86 -99 235.5 -99t236.5 94v587q-94 77 -244 77q-137 0 -226 -97q-93 -102 -93 -270z " />
<glyph unicode="r" horiz-adv-x="960" d="M100 0v172h143l1 692h-144v172h331v-143q85 151 224 151h98q46 0 92 -2v-225h-190v64q-119 0 -185 -115q-22 -40 -32 -94v-500h176v-172h-514z" />
<glyph unicode="s" horiz-adv-x="993" d="M82 111v172h207q0 -81 67 -123q60 -37 123.5 -37t99.5 9.5t63 27.5q60 41 60 97.5t-32.5 91.5t-110.5 63l-198 74q-121 43 -179.5 109.5t-58.5 149.5t24.5 139t70.5 96q100 87 267 87q111 0 186 -31t135 -106h97v-172h-205q0 78 -70 120q-59 35 -121 35t-95.5 -9 t-57.5 -26q-51 -36 -51 -92t31.5 -86.5t105.5 -56.5l199 -70q246 -83 246 -294q0 -140 -105 -225q-107 -85 -280 -85q-223 0 -314 142h-104z" />
<glyph unicode="t" horiz-adv-x="762" d="M51 885v151h167v248l182 86v-334h243v-151h-245l-3 -598q0 -124 59 -151q31 -15 87.5 -15t126.5 33l43 -125q-104 -54 -199 -54t-145.5 16.5t-84.5 55.5q-69 77 -69 268l3 570h-165z" />
<glyph unicode="u" horiz-adv-x="1350" d="M60 864v172h334v-645q0 -241 226 -241q115 0 243 83v631h-139v172h334v-864h115v-172h-302v96q-148 -114 -329 -114q-248 0 -318 213q-24 73 -24 174v495h-140z" />
<glyph unicode="v" horiz-adv-x="1100" d="M20 864v172h358v-172h-97l256 -714l250 714h-63v172h328v-172h-89l-339 -880h-184l-338 880h-82z" />
<glyph unicode="w" horiz-adv-x="1640" d="M20 864v172h328v-172h-48l181 -661l248 833h156l237 -831l189 659h-60v172h328v-172h-89l-284 -880h-172l-235 827l-234 -827h-174l-282 880h-89z" />
<glyph unicode="x" horiz-adv-x="1090" d="M51 864v172h344v-172h-39l191 -246l193 246h-50v172h344v-172h-89l-293 -338l310 -354h76v-172h-344v172h59l-206 256l-201 -256h51v-172h-344v172h84l315 367l-296 325h-105z" />
<glyph unicode="y" horiz-adv-x="1176" d="M31 864v172h393v-172h-123l243 -661l254 661h-122v172h393v-172h-107l-461 -1163h142v-172h-418v172h126l110 285l-346 878h-84z" />
<glyph unicode="z" horiz-adv-x="924" d="M76 0v115l525 766h-331v-146h-184v301h741v-118l-524 -762h354v176h193v-332h-774z" />
<glyph unicode="{" horiz-adv-x="721" d="M133 596v127q79 0 126 83q42 76 42 184v452q0 118 67 195q59 69 144 69h137v-126h-69q-54 0 -74.5 -52.5t-20.5 -146.5v-428q0 -174 -101 -254q-31 -24 -67 -37v-4q118 -43 155 -182q13 -48 13 -109v-418q0 -94 20.5 -146.5t74.5 -52.5h69v-127h-137q-85 0 -144 69 q-67 77 -67 195v443q0 174 -95 243q-31 23 -73 23z" />
<glyph unicode="|" horiz-adv-x="455" d="M152 -270v1996h155v-1996h-155z" />
<glyph unicode="}" horiz-adv-x="721" d="M72 -250h69q54 0 74.5 52.5t20.5 146.5v418q0 174 102 254q30 24 65 37v4q-117 43 -154 181q-13 48 -13 110v428q0 94 -20.5 146.5t-74.5 52.5h-69v126h137q85 0 145 -69q66 -77 66 -195v-452q0 -175 94 -244q32 -23 74 -23v-127q-79 0 -126 -84q-42 -74 -42 -182v-443 q0 -118 -66 -195q-60 -69 -145 -69h-137v127z" />
<glyph unicode="~" horiz-adv-x="1229" d="M141 483q94 176 256 176q83 0 239 -71q58 -27 109 -49.5t89 -22.5q88 0 180 152l73 -115q-45 -84 -105.5 -130t-150.5 -46t-238.5 71.5t-197.5 71.5q-89 0 -180 -151z" />
<glyph unicode="&#xa0;" horiz-adv-x="448" d="M0 0z" />
<glyph unicode="&#xa1;" horiz-adv-x="682" d="M211 -471l41 1167h178l41 -1167h-260zM211 1009.5q0 26.5 10.5 50t28.5 40.5q38 39 78 39t63.5 -10.5t40.5 -28.5q39 -38 39 -77.5t-10.5 -63.5t-28.5 -43q-37 -39 -77 -39t-64 10.5t-41.5 29t-28 42.5t-10.5 50.5z" />
<glyph unicode="&#xa2;" horiz-adv-x="1210" d="M111 684q0 207 116 358q113 148 289 182v355h197v-356q144 -30 236 -127h106v-172h-183l-4 -2q-1 0 -1 2h-1v1q-84 144 -256 144q-133 0 -222 -104q-91 -108 -91 -281q0 -171 92 -276q89 -103 221 -103q195 0 281 182l153 -75q-49 -105 -134 -174.5t-197 -92.5v-331h-197 v329q-182 32 -292 179q-113 148 -113 362z" />
<glyph unicode="&#xa3;" horiz-adv-x="932" d="M33 662v145h195q-64 170 -64 272.5t27 167.5t76 112q103 99 268 99q148 0 242 -100q93 -99 85 -254l-166 -10q-2 82 -32 124q-54 76 -127 76q-125 0 -167 -97q-34 -79 7 -215q9 -30 18 -62t17 -59l16 -54h279v-145h-234q54 -167 48.5 -223.5t-23.5 -102.5 q-38 -101 -124 -164h486v-168h-799v168h110q177 102 159 312q-5 66 -29 134l-16 44h-252z" />
<glyph unicode="&#xa4;" horiz-adv-x="1128" d="M55 281l164 190q-94 119 -94 273.5t96 276.5l-147 177l145 123l149 -179q96 50 203 50t205 -49l137 164l160 -115l-145 -174q94 -119 94 -273.5t-92 -273.5l147 -176l-151 -119l-143 171q-100 -52 -210 -52q-109 0 -207 50l-145 -175zM295 748q0 -59 22 -110t60 -89 q82 -82 198 -82q117 0 199 82t82 199q0 116 -82 198t-199 82q-116 0 -198 -82t-82 -198z" />
<glyph unicode="&#xa5;" horiz-adv-x="1354" d="M51 1344v172h492v-172h-145l286 -488l305 488h-157v172h492v-172h-129l-328 -496h184v-141h-283v-148h283v-141h-283v-246h156v-172h-492v172h139v246h-270v141h270v148h-270v141h178l-311 496h-117z" />
<glyph unicode="&#xa6;" horiz-adv-x="512" d="M152 -268v749h155v-749h-155zM152 979v750h155v-750h-155z" />
<glyph unicode="&#xa7;" horiz-adv-x="1094" d="M74 -25h237v-24q0 -109 69.5 -174.5t180 -65.5t169 54.5t58.5 150.5q0 138 -130 198q-44 20 -180 61t-189.5 71t-92.5 74q-81 92 -81 237q0 103 48.5 187t141.5 136q-149 108 -149 310q0 161 109 256q115 102 315 102q241 0 356 -141q35 -43 52 -94h65v-166h-232v56 q-15 76 -89 123q-68 44 -141 44t-114.5 -12.5t-68.5 -35.5q-54 -44 -54 -105t17.5 -94.5t44.5 -58.5q44 -38 126 -67t149 -53.5t122.5 -50.5t99 -56.5t73.5 -69.5q61 -79 61 -195q0 -224 -196 -340q144 -103 144 -304q0 -172 -123 -285.5t-313 -113.5q-333 0 -415 281h-70 v165zM313 561q0 -48 20.5 -81t52.5 -53.5t109 -44.5l104 -38q111 4 176 59.5t65 149.5q0 128 -155 187q-42 16 -83 27q-21 -1 -56.5 -1t-84.5 -15.5t-82 -42.5t-49.5 -63t-16.5 -84z" />
<glyph unicode="&#xa8;" horiz-adv-x="612" d="M39 1359.5q0 26.5 10.5 50t28.5 40.5q38 39 76.5 39t61.5 -10.5t40 -28.5q37 -38 37 -77.5t-10 -63.5t-27 -43q-36 -39 -75 -39t-62.5 10.5t-41 29t-28 42.5t-10.5 50.5zM498 1359.5q0 26.5 10.5 50t27.5 40.5q39 39 77.5 39t61 -10.5t39.5 -28.5q38 -37 38 -77t-10 -64 t-28 -43q-37 -39 -75 -39t-61.5 10.5t-41 29t-28 42.5t-10.5 50.5z" />
<glyph unicode="&#xa9;" horiz-adv-x="1919" d="M102 830q0 119 30.5 228.5t86 204.5t133.5 173t173 134q199 116 433 116q233 0 434 -116q194 -113 308 -307q117 -198 117 -432q0 -235 -117 -433q-114 -194 -308 -306q-201 -117 -434 -117q-234 0 -433 117q-193 113 -307 306q-116 199 -116 432zM283 830 q0 -141 52.5 -264.5t144 -215t214.5 -144t264 -52.5q280 0 478 196q93 92 145.5 215.5t52.5 264.5t-52.5 270.5t-145 215.5t-215 138.5t-263.5 52.5t-264 -52.5t-214.5 -138.5t-144 -215.5t-52.5 -270.5zM477 834q0 208 146 356q146 147 356 147q200 0 352 -147l-141 -131 q-92 88 -211 88q-129 0 -217 -92q-90 -93 -90 -221q0 -127 90 -218q88 -90 217 -90q56 0 108.5 22.5t83.5 57.5l134 -129q-74 -97 -229 -133q-49 -12 -125.5 -12t-168 39t-159.5 107q-146 146 -146 356z" />
<glyph unicode="&#xaa;" horiz-adv-x="838" d="M102 1058q0 72 27 113.5t70 67.5q83 50 182.5 50t169.5 -14v49q0 129 -154 129q-122 0 -204 -47l-50 96q127 78 273 78q280 0 280 -250v-313h82v-131h-227v56q-93 -75 -201 -75t-179 60q-69 59 -69 131zM244 1072q0 -37 35.5 -62.5t92.5 -25.5q112 0 179 67v136h-156 q-104 0 -139 -59q-12 -19 -12 -56z" />
<glyph unicode="&#xab;" horiz-adv-x="1040" d="M102 565l220 393h192l-229 -393l229 -393h-192zM526 565l219 393h193l-229 -393l229 -393h-193z" />
<glyph unicode="&#xac;" horiz-adv-x="1214" d="M49 815v184h1094v-567h-182v383h-912z" />
<glyph unicode="&#xad;" horiz-adv-x="737" d="M94 496v172h551v-172h-551z" />
<glyph unicode="&#xae;" horiz-adv-x="1919" d="M102 830q0 119 30.5 228.5t86 204.5t133.5 173t173 134q199 116 433 116q233 0 434 -116q194 -113 308 -307q117 -198 117 -432q0 -235 -117 -433q-114 -194 -308 -306q-201 -117 -434 -117q-234 0 -433 117q-193 113 -307 306q-116 199 -116 432zM283 830 q0 -141 52.5 -264.5t144 -215t214.5 -144t264 -52.5q280 0 478 196q93 92 145.5 215.5t52.5 241.5t-52.5 270.5t-145 238.5t-215 138.5t-263.5 52.5t-264 -52.5t-214.5 -138.5t-144 -215.5t-52.5 -270.5zM551 1188v158h483q144 0 232 -79q86 -78 86 -196q0 -139 -91 -206 q-30 -22 -69 -39q68 -37 92 -140l41 -168h82l2 -158h-256l-51 254q-26 158 -193 158h-67v-254h92v-158h-379v158h98v670h-102zM842 928h143q162 0 162 130t-170 130h-135v-260z" />
<glyph unicode="&#xaf;" horiz-adv-x="797" d="M39 1229v117h758v-117h-758z" />
<glyph unicode="&#xb0;" horiz-adv-x="682" d="M102 1497q0 97 70 169q69 71 168 71q98 0 169 -71t71 -169t-71 -167q-71 -70 -169 -70q-100 0 -168 70q-70 71 -70 167zM205 1497q0 -56 39.5 -95.5t95.5 -39.5q55 0 96 40q41 39 41 95q0 55 -41 96t-96 41q-56 0 -96 -41q-39 -41 -39 -96z" />
<glyph unicode="&#xb1;" horiz-adv-x="1229" d="M102 0v162h1024v-162h-1024zM102 711v182h420v420h183v-420h421v-182h-421v-402h-183v402h-420z" />
<glyph unicode="&#xb2;" horiz-adv-x="700" d="M53 1350q0 103 73 167q70 62 173 62q107 0 175 -59q71 -61 71 -158q0 -84 -80 -164l-235 -235h313v-121h-488v102l275 277q82 85 82 141q0 63 -68 88q-21 8 -60.5 8t-71.5 -30t-34 -78h-125z" />
<glyph unicode="&#xb3;" horiz-adv-x="631" d="M51 1051h133q16 -99 129 -99q82 0 115 62q10 18 10 55t-36 64.5t-93 27.5h-57v107h55q57 0 89 27t32 56t-8 46.5t-24 31.5q-36 33 -89 33q-67 0 -102 -54q-12 -18 -12 -44h-132q6 91 73 152q70 65 171 65q110 0 183 -64q71 -61 71 -155t-92 -144q42 -19 72 -60.5t30 -95 t-20 -95t-55 -71.5q-76 -65 -187 -65q-103 0 -176 57q-80 64 -80 163z" />
<glyph unicode="&#xb4;" horiz-adv-x="645" d="M84 1178l213 299h240v-17l-299 -282h-154z" />
<glyph unicode="&#xb6;" horiz-adv-x="1274" d="M41 1104q0 200 135 308q130 104 361 104h598v-162h-80v-1723h-181v1723h-229v-1723h-180v1070q-185 12 -305 123q-119 111 -119 280z" />
<glyph unicode="&#xb7;" horiz-adv-x="612" d="M174 665.5q0 26.5 10.5 50t27.5 40.5q39 39 79 39t63.5 -10.5t41.5 -28.5q38 -38 38 -77.5t-10.5 -64t-27.5 -42.5q-39 -40 -78.5 -40t-63.5 11t-41.5 29t-28 42.5t-10.5 51z" />
<glyph unicode="&#xb8;" horiz-adv-x="940" d="M182 -303q104 2 178 68q67 61 84 157l150 -45q-36 -144 -146 -227q-109 -82 -255 -82z" />
<glyph unicode="&#xb9;" horiz-adv-x="500" d="M33 1321v139l217 119h59v-627h80v-112h-297v112h82v445z" />
<glyph unicode="&#xba;" horiz-adv-x="934" d="M102 1216q0 79 27 145.5t75 114.5q102 104 263 104q162 0 263 -101t101 -259q0 -161 -100 -261q-102 -102 -264 -102q-164 0 -265 101q-100 100 -100 258zM254 1218.5q0 -53.5 17 -95.5t46 -71q60 -62 150 -62q92 0 151 62q62 63 62 165q0 163 -129 213q-39 15 -83.5 15 t-83 -15t-67.5 -43.5t-46 -71.5t-17 -96.5z" />
<glyph unicode="&#xbb;" horiz-adv-x="1040" d="M102 172l230 393l-230 393h193l219 -393l-219 -393h-193zM526 172l230 393l-230 393h193l219 -393l-219 -393h-193z" />
<glyph unicode="&#xbc;" horiz-adv-x="1700" d="M0 -61l1276 1638h199l-1276 -1638h-199zM19 1239v162l217 121h70v-615h81v-129h-323v129h84v404zM1080 303l280 457h148l-273 -455h183v164h135v-164h112v-110h-112v-195h-135v195h-336z" />
<glyph unicode="&#xbd;" horiz-adv-x="1700" d="M0 -61l1276 1638h199l-1276 -1638h-199zM31 1239v162l217 121h70v-615h82v-129h-324v129h84v404zM1037 512q0 109 75 176q71 64 181 64q108 0 177 -58q75 -61 75 -164q0 -75 -74 -153l-229 -236h301v-141h-504v121l274 276q76 69 76 129q0 35 -27 60.5t-75 25.5 t-76.5 -28.5t-28.5 -71.5h-145z" />
<glyph unicode="&#xbe;" horiz-adv-x="1700" d="M0 1001h151q15 -96 119 -96q48 0 72 23q41 38 41 80.5t-31.5 70t-85.5 27.5h-65v113h67q50 0 77.5 25.5t27.5 52.5t-7 42.5t-20 28.5q-31 31 -82 31q-63 0 -92 -51q-10 -17 -10 -41h-150q2 96 72 161q72 66 180 66q112 0 186 -65q74 -64 74 -159.5t-84 -144.5 q63 -30 86 -107q8 -25 8 -62.5t-20.5 -80.5t-56.5 -75q-77 -70 -191 -70q-111 0 -186 62q-80 65 -80 169zM61 -61l1276 1638h199l-1276 -1638h-199zM975 303l280 457h148l-273 -455h183v164h135v-164h112v-110h-112v-195h-135v195h-336z" />
<glyph unicode="&#xbf;" horiz-adv-x="1030" d="M8 -55q0 202 207 346q101 71 134.5 109t49.5 71t25 77q18 80 18 232h181q0 -216 -28.5 -298t-66 -132t-93.5 -97.5t-99.5 -80.5t-73.5 -64q-65 -67 -65 -157q0 -91 67 -161q68 -73 154.5 -73t140.5 28t87 67q61 74 61 159l176 -12q-12 -173 -137 -291 q-131 -123 -322 -123q-193 0 -308 121q-108 113 -108 279zM406 1021.5q0 26.5 10.5 50t27.5 40.5q39 39 79 39t63.5 -10.5t41.5 -28.5q38 -38 38 -77.5t-10.5 -63.5t-27.5 -43q-38 -39 -78 -39t-64 10.5t-41.5 29t-28 42.5t-10.5 50.5z" />
<glyph unicode="&#xc0;" d="M10 0v172h132l472 1344h295l471 -1344h152v-172h-492v172h126l-120 344h-583l-117 -344h156v-172h-492zM471 1940v17h248l184 -299h-145zM520 682h468l-236 678z" />
<glyph unicode="&#xc1;" d="M10 0v172h132l472 1344h295l471 -1344h152v-172h-492v172h126l-120 344h-583l-117 -344h156v-172h-492zM520 682h468l-236 678zM545 1658l213 299h240v-17l-299 -282h-154z" />
<glyph unicode="&#xc2;" d="M10 0v172h132l472 1344h295l471 -1344h152v-172h-492v172h126l-120 344h-583l-117 -344h156v-172h-492zM489 1646l250 313h63l252 -313h-149l-133 155l-135 -155h-148zM520 682h468l-236 678z" />
<glyph unicode="&#xc3;" d="M10 0v172h132l472 1344h295l471 -1344h152v-172h-492v172h126l-120 344h-583l-117 -344h156v-172h-492zM411 1731q45 164 225 164q70 0 155 -53q31 -19 62 -35t64 -16q79 0 96 80l119 -35q-20 -85 -78 -131.5t-126.5 -46.5t-107.5 15.5t-71 33.5t-60 33.5t-61 15.5 q-89 0 -108 -78zM520 682h468l-236 678z" />
<glyph unicode="&#xc4;" d="M10 0v172h132l472 1344h295l471 -1344h152v-172h-492v172h126l-120 344h-583l-117 -344h156v-172h-492zM415 1839.5q0 26.5 10.5 50t28.5 40.5q38 39 76.5 39t61.5 -10.5t40 -28.5q37 -38 37 -77.5t-10 -63.5t-27 -43q-36 -39 -75 -39t-62.5 10.5t-41 29t-28 42.5 t-10.5 50.5zM520 682h468l-236 678zM874 1839.5q0 26.5 10.5 50t27.5 40.5q39 39 77.5 39t61 -10.5t39.5 -28.5q38 -37 38 -77t-10 -64t-28 -43q-37 -39 -75 -39t-61.5 10.5t-41 29t-28 42.5t-10.5 50.5z" />
<glyph unicode="&#xc5;" d="M10 0v172h132l472 1344h295l471 -1344h152v-172h-492v172h126l-120 344h-583l-117 -344h156v-172h-492zM515 1692q0 106 76 180q77 76 180 76q105 0 180.5 -75.5t75.5 -180.5q0 -103 -76 -180q-74 -76 -180 -76q-104 0 -180 76t-76 180zM520 682h468l-236 678zM667 1692 q0 -41 23 -64q40 -40 81 -40q42 0 65 23q40 40 40 81q0 42 -23 65q-40 40 -82 40q-41 0 -64 -23q-40 -40 -40 -82z" />
<glyph unicode="&#xc6;" horiz-adv-x="1915" d="M-2 0v172h106l816 1344h938v-429h-205v256h-465v-481h379v-172h-379v-518h465v256h205v-428h-992v172h125v254h-517l-148 -254h163v-172h-491zM575 598h416v714z" />
<glyph unicode="&#xc7;" horiz-adv-x="1509" d="M72 760.5q0 161.5 53.5 305.5t150 250.5t230 168t281 61.5t248.5 -40q180 -70 293 -212h106v-178h-215q-67 114 -177.5 179t-236.5 65t-222 -49t-165 -131q-144 -175 -144 -420q0 -392 312 -554q93 -49 230 -49q298 0 454 328l176 -83q-38 -108 -129 -208.5t-224.5 -162 t-292 -61.5t-288.5 58.5t-231.5 166.5t-155 256t-53.5 309.5zM544 -303q104 2 178 68q67 61 84 157l150 -45q-36 -144 -146 -227q-109 -82 -255 -82z" />
<glyph unicode="&#xc8;" horiz-adv-x="1286" d="M143 0v172h144v1171h-144v173h1086v-429h-205v256h-541v-485h455v-172h-455v-514h541v256h205v-428h-1086zM340 1940v17h248l184 -299h-145z" />
<glyph unicode="&#xc9;" horiz-adv-x="1286" d="M143 0v172h144v1171h-144v173h1086v-429h-205v256h-541v-485h455v-172h-455v-514h541v256h205v-428h-1086zM460 1658l213 299h240v-17l-299 -282h-154z" />
<glyph unicode="&#xca;" horiz-adv-x="1286" d="M143 0v172h144v1171h-144v173h1086v-429h-205v256h-541v-485h455v-172h-455v-514h541v256h205v-428h-1086zM417 1656l250 313h63l252 -313h-149l-133 155l-135 -155h-148z" />
<glyph unicode="&#xcb;" horiz-adv-x="1286" d="M143 0v172h144v1171h-144v173h1086v-429h-205v256h-541v-485h455v-172h-455v-514h541v256h205v-428h-1086zM289 1839.5q0 26.5 10.5 50t28.5 40.5q38 39 76.5 39t61.5 -10.5t40 -28.5q37 -38 37 -77.5t-10 -63.5t-27 -43q-36 -39 -75 -39t-62.5 10.5t-41 29t-28 42.5 t-10.5 50.5zM748 1839.5q0 26.5 10.5 50t27.5 40.5q39 39 77.5 39t61 -10.5t39.5 -28.5q38 -37 38 -77t-10 -64t-28 -43q-37 -39 -75 -39t-61.5 10.5t-41 29t-28 42.5t-10.5 50.5z" />
<glyph unicode="&#xcc;" horiz-adv-x="770" d="M86 1940v17h248l184 -299h-145zM143 0v172h144v1171h-144v173h484v-173h-144v-1171h144v-172h-484z" />
<glyph unicode="&#xcd;" horiz-adv-x="770" d="M143 0v172h144v1171h-144v173h484v-173h-144v-1171h144v-172h-484zM159 1658l213 299h240v-17l-299 -282h-154z" />
<glyph unicode="&#xce;" horiz-adv-x="770" d="M104 1656l250 313h63l252 -313h-149l-133 155l-135 -155h-148zM143 0v172h144v1171h-144v173h484v-173h-144v-1171h144v-172h-484z" />
<glyph unicode="&#xcf;" horiz-adv-x="770" d="M30 1839.5q0 26.5 10.5 50t28.5 40.5q38 39 76.5 39t61.5 -10.5t40 -28.5q37 -38 37 -77.5t-10 -63.5t-27 -43q-36 -39 -75 -39t-62.5 10.5t-41 29t-28 42.5t-10.5 50.5zM143 0v172h144v1171h-144v173h484v-173h-144v-1171h144v-172h-484zM489 1839.5q0 26.5 10.5 50 t27.5 40.5q39 39 77.5 39t61 -10.5t39.5 -28.5q38 -37 38 -77t-10 -64t-28 -43q-37 -39 -75 -39t-61.5 10.5t-41 29t-28 42.5t-10.5 50.5z" />
<glyph unicode="&#xd0;" horiz-adv-x="1516" d="M127 676v172h168v495h-156v173h576q308 0 520 -220q134 -139 184 -334q25 -96 25 -201t-25 -202t-71.5 -182t-112.5 -154.5t-147 -118.5q-169 -104 -373 -104h-576v172h156v504h-168zM492 172h235q210 0 359 171.5t149 418.5q0 243 -149 412q-148 169 -359 169h-235v-495 h186v-172h-186v-504z" />
<glyph unicode="&#xd1;" horiz-adv-x="1624" d="M143 1343v175h408l692 -1245l8 48v1022h-170v173h492v-173h-129v-1343h-256l-705 1257v-1085h156v-172h-492v172h140v1171h-144zM498 1731q45 164 225 164q70 0 155 -53q31 -19 62 -35t64 -16q79 0 96 80l119 -35q-20 -85 -78 -131.5t-126.5 -46.5t-107.5 15.5t-71 33.5 t-60 33.5t-61 15.5q-89 0 -108 -78z" />
<glyph unicode="&#xd2;" horiz-adv-x="1597" d="M72 760.5q0 161.5 53.5 305.5t150 250.5t230 168t294 61.5t294.5 -61.5t230 -168t149 -250.5t53 -308q0 -332 -204 -558q-96 -107 -229.5 -168.5t-292 -61.5t-288.5 58.5t-232 166.5t-155 256t-53 309.5zM276 758q0 -390 310 -553q94 -49 213 -49q231 0 380 180 q142 173 142 422q0 124 -40.5 239.5t-113 195.5t-168.5 123.5t-207.5 43.5t-208.5 -49t-165 -131q-142 -173 -142 -422zM499 1940v17h248l184 -299h-145z" />
<glyph unicode="&#xd3;" horiz-adv-x="1597" d="M72 760.5q0 161.5 53.5 305.5t150 250.5t230 168t294 61.5t294.5 -61.5t230 -168t149 -250.5t53 -308q0 -332 -204 -558q-96 -107 -229.5 -168.5t-292 -61.5t-288.5 58.5t-232 166.5t-155 256t-53 309.5zM276 758q0 -390 310 -553q94 -49 213 -49q231 0 380 180 q142 173 142 422q0 124 -40.5 239.5t-113 195.5t-168.5 123.5t-207.5 43.5t-208.5 -49t-165 -131q-142 -173 -142 -422zM573 1658l213 299h240v-17l-299 -282h-154z" />
<glyph unicode="&#xd4;" horiz-adv-x="1597" d="M72 760.5q0 161.5 53.5 305.5t150 250.5t230 168t294 61.5t294.5 -61.5t230 -168t149 -250.5t53 -308q0 -332 -204 -558q-96 -107 -229.5 -168.5t-292 -61.5t-288.5 58.5t-232 166.5t-155 256t-53 309.5zM276 758q0 -390 310 -553q94 -49 213 -49q231 0 380 180 q142 173 142 422q0 124 -40.5 239.5t-113 195.5t-168.5 123.5t-207.5 43.5t-208.5 -49t-165 -131q-142 -173 -142 -422zM517 1656l250 313h63l252 -313h-149l-133 155l-135 -155h-148z" />
<glyph unicode="&#xd5;" horiz-adv-x="1597" d="M72 760.5q0 161.5 53.5 305.5t150 250.5t230 168t294 61.5t294.5 -61.5t230 -168t149 -250.5t53 -308q0 -332 -204 -558q-96 -107 -229.5 -168.5t-292 -61.5t-288.5 58.5t-232 166.5t-155 256t-53 309.5zM276 758q0 -390 310 -553q94 -49 213 -49q231 0 380 180 q142 173 142 422q0 124 -40.5 239.5t-113 195.5t-168.5 123.5t-207.5 43.5t-208.5 -49t-165 -131q-142 -173 -142 -422zM439 1731q45 164 225 164q70 0 155 -53q31 -19 62 -35t64 -16q79 0 96 80l119 -35q-20 -85 -78 -131.5t-126.5 -46.5t-107.5 15.5t-71 33.5t-60 33.5 t-61 15.5q-89 0 -108 -78z" />
<glyph unicode="&#xd6;" horiz-adv-x="1597" d="M72 760.5q0 161.5 53.5 305.5t150 250.5t230 168t294 61.5t294.5 -61.5t230 -168t149 -250.5t53 -308q0 -332 -204 -558q-96 -107 -229.5 -168.5t-292 -61.5t-288.5 58.5t-232 166.5t-155 256t-53 309.5zM276 758q0 -390 310 -553q94 -49 213 -49q231 0 380 180 q142 173 142 422q0 124 -40.5 239.5t-113 195.5t-168.5 123.5t-207.5 43.5t-208.5 -49t-165 -131q-142 -173 -142 -422zM443 1839.5q0 26.5 10.5 50t28.5 40.5q38 39 76.5 39t61.5 -10.5t40 -28.5q37 -38 37 -77.5t-10 -63.5t-27 -43q-36 -39 -75 -39t-62.5 10.5t-41 29 t-28 42.5t-10.5 50.5zM902 1839.5q0 26.5 10.5 50t27.5 40.5q39 39 77.5 39t61 -10.5t39.5 -28.5q38 -37 38 -77t-10 -64t-28 -43q-37 -39 -75 -39t-61.5 10.5t-41 29t-28 42.5t-10.5 50.5z" />
<glyph unicode="&#xd7;" horiz-adv-x="1303" d="M133 207l392 469l-373 448l145 123l353 -422l341 408l160 -115l-373 -447l377 -450l-151 -119l-350 420l-355 -426z" />
<glyph unicode="&#xd8;" horiz-adv-x="1593" d="M67 -34l196 252q-187 220 -187 540q0 215 94 399q141 275 431 361q95 28 202 28q220 0 400 -121l140 179h199l-220 -282q208 -227 208 -564q0 -331 -204 -558q-131 -147 -322 -203q-95 -28 -201 -28q-242 0 -426 140l-111 -143h-199zM281 758q0 -216 110 -377l692 890 q-125 89 -262 89t-233.5 -49t-164.5 -131q-142 -173 -142 -422zM498 264q129 -106 305 -106q231 0 379 180q141 171 141 420q0 232 -127 401z" />
<glyph unicode="&#xd9;" horiz-adv-x="1550" d="M113 1343v173h491v-173h-155v-706q0 -242 107 -363q97 -108 273 -108q187 0 281 100q109 115 109 371v706h-164v173h491v-173h-135v-684q0 -319 -170 -504q-161 -175 -416 -175q-249 0 -407 173q-166 183 -166 488v702h-139zM529 1940v17h248l184 -299h-145z" />
<glyph unicode="&#xda;" horiz-adv-x="1550" d="M113 1343v173h491v-173h-155v-706q0 -242 107 -363q97 -108 273 -108q187 0 281 100q109 115 109 371v706h-164v173h491v-173h-135v-684q0 -319 -170 -504q-161 -175 -416 -175q-249 0 -407 173q-166 183 -166 488v702h-139zM603 1658l213 299h240v-17l-299 -282h-154z " />
<glyph unicode="&#xdb;" horiz-adv-x="1550" d="M113 1343v173h491v-173h-155v-706q0 -242 107 -363q97 -108 273 -108q187 0 281 100q109 115 109 371v706h-164v173h491v-173h-135v-684q0 -319 -170 -504q-161 -175 -416 -175q-249 0 -407 173q-166 183 -166 488v702h-139zM547 1656l250 313h63l252 -313h-149l-133 155 l-135 -155h-148z" />
<glyph unicode="&#xdc;" horiz-adv-x="1550" d="M113 1343v173h491v-173h-155v-706q0 -242 107 -363q97 -108 273 -108q187 0 281 100q109 115 109 371v706h-164v173h491v-173h-135v-684q0 -319 -170 -504q-161 -175 -416 -175q-249 0 -407 173q-166 183 -166 488v702h-139zM473 1839.5q0 26.5 10.5 50t28.5 40.5 q38 39 76.5 39t61.5 -10.5t40 -28.5q37 -38 37 -77.5t-10 -63.5t-27 -43q-36 -39 -75 -39t-62.5 10.5t-41 29t-28 42.5t-10.5 50.5zM932 1839.5q0 26.5 10.5 50t27.5 40.5q39 39 77.5 39t61 -10.5t39.5 -28.5q38 -37 38 -77t-10 -64t-28 -43q-37 -39 -75 -39t-61.5 10.5 t-41 29t-28 42.5t-10.5 50.5z" />
<glyph unicode="&#xdd;" horiz-adv-x="1354" d="M51 1343v173h492v-173h-144l285 -487l305 487h-158v173h492v-173h-129l-426 -646v-525h156v-172h-492v172h139v530l-402 641h-118zM461 1658l213 299h240v-17l-299 -282h-154z" />
<glyph unicode="&#xde;" horiz-adv-x="1323" d="M104 0v172h140v1171h-138v173h492v-173h-158v-134l328 -1q210 0 334 -104q133 -110 133 -305q0 -169 -129 -285q-134 -119 -342 -119h-324v-223h156v-172h-492zM440 559h328q182 0 240 136q20 45 20 120.5t-37.5 124.5t-93 72.5t-154.5 23.5h-303v-477z" />
<glyph unicode="&#xdf;" horiz-adv-x="1247" d="M16 0v172h185v987q0 152 107 269q117 128 304 128t312 -120q125 -122 125 -284.5t-106 -268.5q225 -146 225 -409q0 -101 -39.5 -192.5t-108.5 -157.5q-143 -138 -354 -138q-39 0 -78 6v188q40 -10 91.5 -10t108 24.5t98.5 67.5q90 92 90 212q0 196 -190 280 q-56 24 -118 24h-80v186h78q64 3 93.5 20t51.5 41q46 50 46 106.5t-18 100.5t-51 75q-66 63 -178 63q-97 0 -156 -66q-57 -65 -57 -168v-1136h-381z" />
<glyph unicode="&#xe0;" horiz-adv-x="1120" d="M70 274q0 232 238 310q88 28 202.5 28t199.5 -17l1 85q0 160 -131 202q-40 13 -88.5 13t-91.5 -6.5t-80 -16.5q-78 -22 -123 -53l-61 129q118 76 272 102q51 9 120.5 9t141.5 -21.5t122 -66.5q104 -94 104 -281l-1 -518h115v-172h-301v96q-134 -125 -293 -125 q-150 0 -249 89q-97 88 -97 214zM221 1460v17h248l184 -299h-145zM250 292.5q0 -42.5 15 -73t42.5 -51t65.5 -31t79.5 -10.5t78.5 9t70 24q68 32 108 79l1 234h-216q-171 0 -226 -104q-18 -34 -18 -76.5z" />
<glyph unicode="&#xe1;" horiz-adv-x="1120" d="M70 274q0 232 238 310q88 28 202.5 28t199.5 -17l1 85q0 160 -131 202q-40 13 -88.5 13t-91.5 -6.5t-80 -16.5q-78 -22 -123 -53l-61 129q118 76 272 102q51 9 120.5 9t141.5 -21.5t122 -66.5q104 -94 104 -281l-1 -518h115v-172h-301v96q-134 -125 -293 -125 q-150 0 -249 89q-97 88 -97 214zM250 292.5q0 -42.5 15 -73t42.5 -51t65.5 -31t79.5 -10.5t78.5 9t70 24q68 32 108 79l1 234h-216q-171 0 -226 -104q-18 -34 -18 -76.5zM295 1178l213 299h240v-17l-299 -282h-154z" />
<glyph unicode="&#xe2;" horiz-adv-x="1120" d="M70 274q0 232 238 310q88 28 202.5 28t199.5 -17l1 85q0 160 -131 202q-40 13 -88.5 13t-91.5 -6.5t-80 -16.5q-78 -22 -123 -53l-61 129q118 76 272 102q51 9 120.5 9t141.5 -21.5t122 -66.5q104 -94 104 -281l-1 -518h115v-172h-301v96q-134 -125 -293 -125 q-150 0 -249 89q-97 88 -97 214zM239 1176l250 313h63l252 -313h-149l-133 155l-135 -155h-148zM250 292.5q0 -42.5 15 -73t42.5 -51t65.5 -31t79.5 -10.5t78.5 9t70 24q68 32 108 79l1 234h-216q-171 0 -226 -104q-18 -34 -18 -76.5z" />
<glyph unicode="&#xe3;" horiz-adv-x="1120" d="M70 274q0 232 238 310q88 28 202.5 28t199.5 -17l1 85q0 160 -131 202q-40 13 -88.5 13t-91.5 -6.5t-80 -16.5q-78 -22 -123 -53l-61 129q118 76 272 102q51 9 120.5 9t141.5 -21.5t122 -66.5q104 -94 104 -281l-1 -518h115v-172h-301v96q-134 -125 -293 -125 q-150 0 -249 89q-97 88 -97 214zM161 1251q45 164 225 164q70 0 155 -53q31 -19 62 -35t64 -16q79 0 96 80l119 -35q-20 -85 -78 -131.5t-126.5 -46.5t-107.5 15.5t-71 33.5t-60 33.5t-61 15.5q-89 0 -108 -78zM250 292.5q0 -42.5 15 -73t42.5 -51t65.5 -31t79.5 -10.5 t78.5 9t70 24q68 32 108 79l1 234h-216q-171 0 -226 -104q-18 -34 -18 -76.5z" />
<glyph unicode="&#xe4;" horiz-adv-x="1120" d="M70 274q0 232 238 310q88 28 202.5 28t199.5 -17l1 85q0 160 -131 202q-40 13 -88.5 13t-91.5 -6.5t-80 -16.5q-78 -22 -123 -53l-61 129q118 76 272 102q51 9 120.5 9t141.5 -21.5t122 -66.5q104 -94 104 -281l-1 -518h115v-172h-301v96q-134 -125 -293 -125 q-150 0 -249 89q-97 88 -97 214zM121 1359.5q0 26.5 10.5 50t28.5 40.5q38 39 76.5 39t61.5 -10.5t40 -28.5q37 -38 37 -77.5t-10 -63.5t-27 -43q-36 -39 -75 -39t-62.5 10.5t-41 29t-28 42.5t-10.5 50.5zM250 292.5q0 -42.5 15 -73t42.5 -51t65.5 -31t79.5 -10.5t78.5 9 t70 24q68 32 108 79l1 234h-216q-171 0 -226 -104q-18 -34 -18 -76.5zM580 1359.5q0 26.5 10.5 50t27.5 40.5q39 39 77.5 39t61 -10.5t39.5 -28.5q38 -37 38 -77t-10 -64t-28 -43q-37 -39 -75 -39t-61.5 10.5t-41 29t-28 42.5t-10.5 50.5z" />
<glyph unicode="&#xe5;" horiz-adv-x="1120" d="M70 274q0 232 238 310q88 28 202.5 28t199.5 -17l1 85q0 160 -131 202q-40 13 -88.5 13t-91.5 -6.5t-80 -16.5q-78 -22 -123 -53l-61 129q118 76 272 102q51 9 120.5 9t141.5 -21.5t122 -66.5q104 -94 104 -281l-1 -518h115v-172h-301v96q-134 -125 -293 -125 q-150 0 -249 89q-97 88 -97 214zM250 292.5q0 -42.5 15 -73t42.5 -51t65.5 -31t79.5 -10.5t78.5 9t70 24q68 32 108 79l1 234h-216q-171 0 -226 -104q-18 -34 -18 -76.5zM266 1433q0 106 76 180q77 76 180 76q105 0 180.5 -75.5t75.5 -180.5q0 -103 -76 -180 q-74 -76 -180 -76q-104 0 -180 76t-76 180zM418 1433q0 -41 23 -64q40 -40 81 -40q42 0 65 23q40 40 40 81q0 42 -23 65q-40 40 -82 40q-41 0 -64 -23q-40 -40 -40 -82z" />
<glyph unicode="&#xe6;" horiz-adv-x="1784" d="M51 274q0 229 239 304q88 28 205.5 28t197.5 -21v3l1 92q3 160 -132 202q-41 13 -89.5 13t-91.5 -6.5t-81 -16.5q-77 -22 -122 -53l-61 129q118 76 273 102q50 9 99 9q239 0 332 -146q133 150 357 150q214 0 324 -129q118 -141 118 -440h-746q0 -109 40 -200 q22 -50 103.5 -100.5t184.5 -50.5q155 0 318 93l75 -127q-201 -138 -432.5 -138t-362.5 171q-100 -121 -272 -159q-55 -12 -124.5 -12t-137 24t-115.5 65q-100 87 -100 214zM231 296q0 -43 15 -74.5t42.5 -52.5t65.5 -31.5t109.5 -10.5t146 36.5t125.5 96.5q-38 94 -44 217 h-216q-171 0 -226 -104q-18 -34 -18 -77zM884 639h537q-18 268 -254 268q-67 0 -115.5 -18.5t-82.5 -52.5q-64 -65 -85 -197z" />
<glyph unicode="&#xe7;" horiz-adv-x="1118" d="M92 520q0 239 146 394q145 155 353.5 155t339.5 -137h105v-172h-188q-81 145 -256 145q-133 0 -222 -104q-91 -108 -91 -281q0 -171 92 -276q89 -103 221 -103q195 0 280 183l154 -76q-93 -198 -296 -258q-66 -19 -157 -19t-182.5 40.5t-158.5 113.5q-140 154 -140 395z M358 -303q104 2 178 68q67 61 84 157l150 -45q-36 -144 -146 -227q-109 -82 -255 -82z" />
<glyph unicode="&#xe8;" horiz-adv-x="1175" d="M92 522q0 234 124 382q133 159 364 159q214 0 324 -129q118 -141 118 -440h-746q0 -81 31 -165.5t112.5 -135t184.5 -50.5q155 0 318 93l75 -127q-201 -138 -419 -138q-219 0 -348 139q-138 147 -138 412zM257 1460v17h248l184 -299h-145zM286 639h537q-18 268 -254 268 q-67 0 -115.5 -18.5t-82.5 -52.5q-64 -65 -85 -197z" />
<glyph unicode="&#xe9;" horiz-adv-x="1175" d="M92 522q0 234 124 382q133 159 364 159q214 0 324 -129q118 -141 118 -440h-746q0 -81 31 -165.5t112.5 -135t184.5 -50.5q155 0 318 93l75 -127q-201 -138 -419 -138q-219 0 -348 139q-138 147 -138 412zM286 639h537q-18 268 -254 268q-67 0 -115.5 -18.5t-82.5 -52.5 q-64 -65 -85 -197zM331 1178l213 299h240v-17l-299 -282h-154z" />
<glyph unicode="&#xea;" horiz-adv-x="1175" d="M92 522q0 234 124 382q133 159 364 159q214 0 324 -129q118 -141 118 -440h-746q0 -81 31 -165.5t112.5 -135t184.5 -50.5q155 0 318 93l75 -127q-201 -138 -419 -138q-219 0 -348 139q-138 147 -138 412zM286 639h537q-18 268 -254 268q-67 0 -115.5 -18.5t-82.5 -52.5 q-64 -65 -85 -197zM287 1176l250 313h63l252 -313h-149l-133 155l-135 -155h-148z" />
<glyph unicode="&#xeb;" horiz-adv-x="1175" d="M92 522q0 234 124 382q133 159 364 159q214 0 324 -129q118 -141 118 -440h-746q0 -81 31 -165.5t112.5 -135t184.5 -50.5q155 0 318 93l75 -127q-201 -138 -419 -138q-219 0 -348 139q-138 147 -138 412zM201 1359.5q0 26.5 10.5 50t28.5 40.5q38 39 76.5 39t61.5 -10.5 t40 -28.5q37 -38 37 -77.5t-10 -63.5t-27 -43q-36 -39 -75 -39t-62.5 10.5t-41 29t-28 42.5t-10.5 50.5zM286 639h537q-18 268 -254 268q-67 0 -115.5 -18.5t-82.5 -52.5q-64 -65 -85 -197zM660 1359.5q0 26.5 10.5 50t27.5 40.5q39 39 77.5 39t61 -10.5t39.5 -28.5 q38 -37 38 -77t-10 -64t-28 -43q-37 -39 -75 -39t-61.5 10.5t-41 29t-28 42.5t-10.5 50.5z" />
<glyph unicode="&#xec;" horiz-adv-x="612" d="M0 1460v17h248l184 -299h-145zM59 864v172h338v-864h156v-172h-492v172h148v692h-150z" />
<glyph unicode="&#xed;" horiz-adv-x="612" d="M59 864v172h338v-864h156v-172h-492v172h148v692h-150zM113 1178l213 299h240v-17l-299 -282h-154z" />
<glyph unicode="&#xee;" horiz-adv-x="612" d="M58 1176l250 313h63l252 -313h-149l-133 155l-135 -155h-148zM59 864v172h338v-864h156v-172h-492v172h148v692h-150z" />
<glyph unicode="&#xef;" horiz-adv-x="657" d="M13 1402.5q0 26.5 10.5 50t27.5 41.5q39 38 79 38t63.5 -10.5t41.5 -27.5q38 -39 38 -78.5t-10.5 -63.5t-27.5 -42q-38 -40 -78 -40t-64 10.5t-41.5 29t-28 42.5t-10.5 50.5zM92 864v172h338v-864h156v-172h-492v172h148v692h-150zM333 1402.5q0 26.5 10.5 50t27.5 41.5 q39 38 79 38t63.5 -10.5t41.5 -27.5q38 -39 38 -78.5t-10.5 -63.5t-27.5 -42q-38 -40 -78 -40t-64 10.5t-41.5 29t-28 42.5t-10.5 50.5z" />
<glyph unicode="&#xf0;" horiz-adv-x="1270" d="M94 529q0 202 146 339q142 132 331 132q118 0 199 -34l-112 186l-149 -48l-52 164l109 35l-134 223h234l89 -162l170 55l53 -164l-138 -45l194 -352q51 -93 84 -179t33 -187.5t-43.5 -195t-116.5 -160.5q-154 -140 -364 -140q-225 0 -374 140q-159 149 -159 393zM281 502 q0 -145 102 -240q98 -92 240 -92q149 0 244 88q98 90 98 244q0 149 -97 244q-92 90 -226 90q-67 0 -133.5 -21.5t-116.5 -63.5q-111 -92 -111 -249z" />
<glyph unicode="&#xf1;" horiz-adv-x="1366" d="M100 0v172h144v692h-144v172h330v-122h2q160 141 328 141q262 0 336 -213q26 -74 26 -174v-496h144v-172h-484v172h146v473q0 119 -60.5 180.5t-175.5 61.5t-254 -108v-607h146v-172h-484zM323 1251q45 164 225 164q70 0 155 -53q31 -19 62 -35t64 -16q79 0 96 80 l119 -35q-20 -85 -78 -131.5t-126.5 -46.5t-107.5 15.5t-71 33.5t-60 33.5t-61 15.5q-89 0 -108 -78z" />
<glyph unicode="&#xf2;" horiz-adv-x="1225" d="M87 518q0 123 38.5 224t107.5 174q143 150 373 150q232 0 374 -150q144 -151 144 -396q0 -242 -144 -397q-143 -154 -374 -154q-232 0 -375 153q-144 153 -144 396zM283 520q0 -91 25.5 -163t69.5 -123q93 -105 228 -105q141 0 232 105q94 107 94 284q0 184 -94 289 q-87 99 -232 99q-138 0 -228 -99q-95 -105 -95 -287zM305 1460v17h248l184 -299h-145z" />
<glyph unicode="&#xf3;" horiz-adv-x="1225" d="M87 518q0 123 38.5 224t107.5 174q143 150 373 150q232 0 374 -150q144 -151 144 -396q0 -242 -144 -397q-143 -154 -374 -154q-232 0 -375 153q-144 153 -144 396zM283 520q0 -91 25.5 -163t69.5 -123q93 -105 228 -105q141 0 232 105q94 107 94 284q0 184 -94 289 q-87 99 -232 99q-138 0 -228 -99q-95 -105 -95 -287zM379 1178l213 299h240v-17l-299 -282h-154z" />
<glyph unicode="&#xf4;" horiz-adv-x="1225" d="M87 518q0 123 38.5 224t107.5 174q143 150 373 150q232 0 374 -150q144 -151 144 -396q0 -242 -144 -397q-143 -154 -374 -154q-232 0 -375 153q-144 153 -144 396zM283 520q0 -91 25.5 -163t69.5 -123q93 -105 228 -105q141 0 232 105q94 107 94 284q0 184 -94 289 q-87 99 -232 99q-138 0 -228 -99q-95 -105 -95 -287zM323 1176l250 313h63l252 -313h-149l-133 155l-135 -155h-148z" />
<glyph unicode="&#xf5;" horiz-adv-x="1225" d="M87 518q0 123 38.5 224t107.5 174q143 150 373 150q232 0 374 -150q144 -151 144 -396q0 -242 -144 -397q-143 -154 -374 -154q-232 0 -375 153q-144 153 -144 396zM245 1251q45 164 225 164q70 0 155 -53q31 -19 62 -35t64 -16q79 0 96 80l119 -35q-20 -85 -78 -131.5 t-126.5 -46.5t-107.5 15.5t-71 33.5t-60 33.5t-61 15.5q-89 0 -108 -78zM283 520q0 -91 25.5 -163t69.5 -123q93 -105 228 -105q141 0 232 105q94 107 94 284q0 184 -94 289q-87 99 -232 99q-138 0 -228 -99q-95 -105 -95 -287z" />
<glyph unicode="&#xf6;" horiz-adv-x="1225" d="M87 518q0 123 38.5 224t107.5 174q143 150 373 150q232 0 374 -150q144 -151 144 -396q0 -242 -144 -397q-143 -154 -374 -154q-232 0 -375 153q-144 153 -144 396zM249 1359.5q0 26.5 10.5 50t28.5 40.5q38 39 76.5 39t61.5 -10.5t40 -28.5q37 -38 37 -77.5t-10 -63.5 t-27 -43q-36 -39 -75 -39t-62.5 10.5t-41 29t-28 42.5t-10.5 50.5zM283 520q0 -91 25.5 -163t69.5 -123q93 -105 228 -105q141 0 232 105q94 107 94 284q0 184 -94 289q-87 99 -232 99q-138 0 -228 -99q-95 -105 -95 -287zM708 1359.5q0 26.5 10.5 50t27.5 40.5 q39 39 77.5 39t61 -10.5t39.5 -28.5q38 -37 38 -77t-10 -64t-28 -43q-37 -39 -75 -39t-61.5 10.5t-41 29t-28 42.5t-10.5 50.5z" />
<glyph unicode="&#xf7;" horiz-adv-x="1126" d="M51 452v162h1024v-162h-1024zM414 120.5q0 26.5 10.5 50t27.5 41.5q39 38 79 38t63.5 -10.5t41.5 -27.5q38 -39 38 -78.5t-10.5 -63.5t-27.5 -42q-38 -40 -78 -40t-64 10.5t-41.5 29t-28 42.5t-10.5 50.5zM414 906.5q0 26.5 10.5 50t27.5 41.5q39 38 79 38t63.5 -10.5 t41.5 -27.5q38 -39 38 -78.5t-10.5 -63.5t-27.5 -42q-38 -40 -78 -40t-64 10.5t-41.5 29t-28 42.5t-10.5 50.5z" />
<glyph unicode="&#xf8;" horiz-adv-x="1219" d="M52 -61l161 206q-121 148 -121 373q0 245 144 396q144 153 372 153q153 0 272 -70l133 170h198l-211 -270q126 -151 126 -377q0 -249 -140 -400q-142 -151 -396 -151q-136 0 -259 73l-80 -103h-199zM285 518q0 -123 50 -217l439 561q-70 45 -151 45t-139.5 -25.5 t-103.5 -74.5q-95 -105 -95 -289zM441 182q75 -51 155.5 -51t140 27t103.5 77q94 107 94 283q0 134 -52 228z" />
<glyph unicode="&#xf9;" horiz-adv-x="1350" d="M60 864v172h334v-645q0 -241 226 -241q115 0 243 83v631h-139v172h334v-864h115v-172h-302v96q-148 -114 -329 -114q-248 0 -318 213q-24 73 -24 174v495h-140zM316 1460v17h248l184 -299h-145z" />
<glyph unicode="&#xfa;" horiz-adv-x="1350" d="M60 864v172h334v-645q0 -241 226 -241q115 0 243 83v631h-139v172h334v-864h115v-172h-302v96q-148 -114 -329 -114q-248 0 -318 213q-24 73 -24 174v495h-140zM390 1178l213 299h240v-17l-299 -282h-154z" />
<glyph unicode="&#xfb;" horiz-adv-x="1350" d="M60 864v172h334v-645q0 -241 226 -241q115 0 243 83v631h-139v172h334v-864h115v-172h-302v96q-148 -114 -329 -114q-248 0 -318 213q-24 73 -24 174v495h-140zM334 1176l250 313h63l252 -313h-149l-133 155l-135 -155h-148z" />
<glyph unicode="&#xfc;" horiz-adv-x="1350" d="M60 864v172h334v-645q0 -241 226 -241q115 0 243 83v631h-139v172h334v-864h115v-172h-302v96q-148 -114 -329 -114q-248 0 -318 213q-24 73 -24 174v495h-140zM260 1359.5q0 26.5 10.5 50t28.5 40.5q38 39 76.5 39t61.5 -10.5t40 -28.5q37 -38 37 -77.5t-10 -63.5 t-27 -43q-36 -39 -75 -39t-62.5 10.5t-41 29t-28 42.5t-10.5 50.5zM719 1359.5q0 26.5 10.5 50t27.5 40.5q39 39 77.5 39t61 -10.5t39.5 -28.5q38 -37 38 -77t-10 -64t-28 -43q-37 -39 -75 -39t-61.5 10.5t-41 29t-28 42.5t-10.5 50.5z" />
<glyph unicode="&#xfd;" horiz-adv-x="1176" d="M31 864v172h393v-172h-123l243 -661l254 661h-122v172h393v-172h-107l-461 -1163h142v-172h-418v172h126l110 285l-346 878h-84zM415 1178l213 299h240v-17l-299 -282h-154z" />
<glyph unicode="&#xfe;" horiz-adv-x="1243" d="M55 -299h144v1704h-142v172h328v-627q144 111 305 111q204 0 334 -145q129 -145 129 -379q0 -246 -143 -401q-141 -152 -387 -152q-133 0 -238 81v-364h162v-172h-492v172zM385 229q81 -84 250 -84q137 0 227 97q99 106 99 288q0 169 -95 271q-88 96 -231 96t-250 -111 v-557z" />
<glyph unicode="&#xff;" horiz-adv-x="1176" d="M31 864v172h393v-172h-123l243 -661l254 661h-122v172h393v-172h-107l-461 -1163h142v-172h-418v172h126l110 285l-346 878h-84zM188 1360.5q0 26.5 10.5 50t27.5 41.5q39 38 79 38t63.5 -10.5t41.5 -27.5q38 -39 38 -78.5t-10.5 -63.5t-27.5 -42q-38 -40 -78 -40 t-64 10.5t-41.5 29t-28 42.5t-10.5 50.5zM647 1360.5q0 26.5 10.5 50t27.5 41.5q39 38 79 38t63.5 -10.5t41.5 -27.5q38 -39 38 -78.5t-10.5 -63.5t-27.5 -42q-38 -40 -78 -40t-64 10.5t-41.5 29t-28 42.5t-10.5 50.5z" />
<glyph unicode="&#x178;" horiz-adv-x="1354" d="M51 1343v173h492v-173h-144l285 -487l305 487h-158v173h492v-173h-129l-426 -646v-525h156v-172h-492v172h139v530l-402 641h-118zM338 1839.5q0 26.5 10.5 50t27.5 41.5q39 38 79 38t63.5 -10.5t41.5 -27.5q38 -39 38 -78.5t-10.5 -63.5t-27.5 -42q-38 -40 -78 -40 t-64 10.5t-41.5 29t-28 42.5t-10.5 50.5zM797 1839.5q0 26.5 10.5 50t27.5 41.5q39 38 79 38t63.5 -10.5t41.5 -27.5q38 -39 38 -78.5t-10.5 -63.5t-27.5 -42q-38 -40 -78 -40t-64 10.5t-41.5 29t-28 42.5t-10.5 50.5z" />
<glyph unicode="&#x2c6;" horiz-adv-x="860" d="M217 1176l250 313h63l252 -313h-149l-133 155l-135 -155h-148z" />
<glyph unicode="&#x2dc;" horiz-adv-x="1000" d="M88 1251q45 164 225 164q70 0 155 -53q31 -19 62 -35t64 -16q79 0 96 80l119 -35q-20 -85 -78 -131.5t-126.5 -46.5t-107.5 15.5t-71 33.5t-60 33.5t-61 15.5q-89 0 -108 -78z" />
<glyph unicode="&#x2000;" horiz-adv-x="984" />
<glyph unicode="&#x2001;" horiz-adv-x="1969" />
<glyph unicode="&#x2002;" horiz-adv-x="984" />
<glyph unicode="&#x2003;" horiz-adv-x="1969" />
<glyph unicode="&#x2004;" horiz-adv-x="656" />
<glyph unicode="&#x2005;" horiz-adv-x="492" />
<glyph unicode="&#x2006;" horiz-adv-x="328" />
<glyph unicode="&#x2007;" horiz-adv-x="328" />
<glyph unicode="&#x2008;" horiz-adv-x="246" />
<glyph unicode="&#x2009;" horiz-adv-x="393" />
<glyph unicode="&#x200a;" horiz-adv-x="109" />
<glyph unicode="&#x2010;" horiz-adv-x="737" d="M94 496v172h551v-172h-551z" />
<glyph unicode="&#x2011;" horiz-adv-x="737" d="M94 496v172h551v-172h-551z" />
<glyph unicode="&#x2012;" horiz-adv-x="737" d="M94 496v172h551v-172h-551z" />
<glyph unicode="&#x2013;" horiz-adv-x="1024" d="M0 485v162h1024v-162h-1024z" />
<glyph unicode="&#x2014;" horiz-adv-x="2048" d="M0 485v162h2048v-162h-2048z" />
<glyph unicode="&#x2018;" horiz-adv-x="606" d="M113 1057l249 499l132 -63l-191 -514z" />
<glyph unicode="&#x2019;" horiz-adv-x="606" d="M92 995l184 570l220 -86l-260 -537z" />
<glyph unicode="&#x201c;" horiz-adv-x="1065" d="M129 1057l250 499l131 -63l-191 -514zM555 1057l250 499l131 -63l-191 -514z" />
<glyph unicode="&#x201d;" horiz-adv-x="1028" d="M92 1042l191 514l190 -77l-250 -500zM518 1042l191 514l190 -77l-250 -500z" />
<glyph unicode="&#x201e;" horiz-adv-x="1005" d="M20 -287l185 570l219 -86l-260 -537zM481 -287l185 570l219 -86l-260 -537z" />
<glyph unicode="&#x2022;" horiz-adv-x="811" d="M154 780q0 52 19.5 98t53.5 80q72 74 179 74q105 0 178 -73t73 -179t-73 -179t-178 -73q-106 0 -179 73t-73 179z" />
<glyph unicode="&#x2026;" horiz-adv-x="2048" d="M205 123q0 60 43.5 103.5t89 43.5t72.5 -11.5t48 -32.5q44 -44 44 -103q0 -61 -44 -104q-46 -44 -91 -44t-71.5 12t-47.5 32q-43 42 -43 104zM877 123q0 60 43.5 103.5t89 43.5t72.5 -11.5t48 -32.5q44 -44 44 -103q0 -61 -44 -104q-46 -44 -91 -44t-71.5 12t-47.5 32 q-43 42 -43 104zM1548 123q0 58 44 103q42 44 88.5 44t73.5 -11.5t47 -32.5q44 -45 44 -103q0 -60 -44 -104t-89.5 -44t-72.5 12t-47 32q-44 44 -44 104z" />
<glyph unicode="&#x202f;" horiz-adv-x="393" />
<glyph unicode="&#x2039;" horiz-adv-x="616" d="M102 565l220 393h192l-229 -393l229 -393h-192z" />
<glyph unicode="&#x203a;" horiz-adv-x="616" d="M102 172l230 393l-230 393h193l219 -393l-219 -393h-193z" />
<glyph unicode="&#x205f;" horiz-adv-x="492" />
<glyph unicode="&#xe000;" horiz-adv-x="1035" d="M0 0v1035h1035v-1035h-1035z" />
</font>
</defs>
</svg>
