<?xml version="1.0" standalone="no"?>
<!DOCTYPE svg PUBLIC "-//W3C//DTD SVG 1.1//EN" "http://www.w3.org/Graphics/SVG/1.1/DTD/svg11.dtd" >
<svg xmlns="http://www.w3.org/2000/svg">
<metadata></metadata>
<defs>
<font id="EnriquetaRegular" horiz-adv-x="1468" >
<font-face units-per-em="2048" ascent="1638" descent="-410" />
<missing-glyph horiz-adv-x="522" />
<glyph horiz-adv-x="0" />
<glyph horiz-adv-x="2048" />
<glyph unicode="&#xd;" horiz-adv-x="681" />
<glyph unicode=" "  horiz-adv-x="522" />
<glyph unicode="&#x09;" horiz-adv-x="522" />
<glyph unicode="&#xa0;" horiz-adv-x="522" />
<glyph unicode="!" horiz-adv-x="665" d="M205 116q0 130 133 130t133 -129q0 -137 -152 -137q-70 0 -92 33.5t-22 102.5zM231 1475h203l-6 -332l-33 -787h-125l-30 787z" />
<glyph unicode="&#x22;" horiz-adv-x="749" d="M117 1528v30q0 60 106 60q78 0 78 -74v-16l-31 -428h-123zM449 1528v30q0 60 106 60q78 0 78 -74v-16l-31 -428h-123z" />
<glyph unicode="#" horiz-adv-x="1212" d="M82 287v127h233l54 307h-232v125h254l58 319h139l-58 -319h256l58 319h139l-57 -319h204v-125h-227l-53 -307h225v-127h-248l-47 -267h-139l47 267h-256l-47 -267h-139l47 267h-211zM455 414h256l53 307h-256z" />
<glyph unicode="$" horiz-adv-x="1134" d="M92 86l31 299l147 -8l19 -180q119 -49 258 -49.5t217 55t78 144.5t-38 130t-175 115l-250 131q-121 63 -182.5 134t-61.5 199t90 219t252 109l-8 244h152l-11 -242q168 -6 375 -61l-24 -291h-146l-29 172q-104 53 -230 53.5t-180 -42.5t-54 -129.5t47 -130.5t170 -111 l225 -109q135 -66 200.5 -136.5t65.5 -220t-110.5 -252.5t-303.5 -118l9 -254h-154l8 252q-143 4 -224 27.5t-163 50.5z" />
<glyph unicode="%" horiz-adv-x="1376" d="M137 909.5q0 112.5 72 194.5t195.5 82t191.5 -79t68 -195.5t-81 -189.5t-195 -73t-182.5 74t-68.5 186.5zM244 27l776 1192l104 -74l-774 -1192zM262 919.5q0 -71.5 41 -116.5t106.5 -45t97.5 48t32 119.5t-42 113.5t-107.5 42t-96.5 -45t-31 -116.5zM715 235.5 q0 112.5 71.5 194.5t195.5 82t191.5 -79t67.5 -195.5t-81 -189.5t-194.5 -73t-182 74t-68.5 186.5zM840 240.5q0 -72.5 42 -117.5t106.5 -45t96 49t31.5 120.5t-42 113.5t-107.5 42t-96 -45t-30.5 -117.5z" />
<glyph unicode="&#x26;" horiz-adv-x="1445" d="M63 351.5q0 123.5 39 194t119 140.5l199 170q-25 39 -83 115t-82 127t-24 108q0 111 76 191q88 98 292 98t388 -102l-37 -279h-153v197q-78 59 -209 59q-70 0 -112 -43t-42 -118t82 -177q45 -59 87 -106t50 -58l363 -469l194 125l52 -108l-166 -121l20 -25 q119 -152 227 -151q43 0 82 16l-10 -115q-72 -41 -143.5 -40.5t-129 32t-89 63t-103.5 115.5q-10 -6 -80.5 -52t-123 -74.5t-141.5 -57.5t-183 -29t-171 37t-116 97q-72 117 -72 240.5zM268 368.5q0 -92.5 61.5 -164t184.5 -71.5q78 0 183.5 57.5t164.5 106.5l-340 455 l-125 -123q-80 -78 -104.5 -123t-24.5 -137.5z" />
<glyph unicode="'" horiz-adv-x="417" d="M106 1542q0 76 102.5 76t102.5 -76q0 -47 -41 -442h-123q-41 424 -41 442z" />
<glyph unicode="(" horiz-adv-x="641" d="M123 590q0 307 113.5 581.5t261.5 436.5l96 -92q-154 -209 -222.5 -465t-68.5 -466t67.5 -466t221.5 -465l-96 -84q-147 162 -260 437.5t-113 582.5z" />
<glyph unicode=")" horiz-adv-x="641" d="M47 1516l96 92q147 -162 261 -436.5t114 -581.5t-113 -582.5t-260 -437.5l-96 84q154 209 221.5 465t67.5 466t-68.5 466t-222.5 465z" />
<glyph unicode="*" horiz-adv-x="720" d="M31 1022l235 111q-137 63 -173 89.5t-36 53.5t33 80l217 -150q-10 102 -10 162q0 100 72 100l45 -2l-23 -260q166 115 198 115t45 -14.5t36 -61.5l-238 -112l158 -78q53 -27 53 -72q0 -18 -33 -72l-219 150q12 -127 12 -174t-21.5 -67.5t-46 -20.5t-48.5 4l20 258 q-100 -70 -138 -92.5t-62.5 -22.5t-40 16.5t-35.5 59.5z" />
<glyph unicode="+" horiz-adv-x="1056" d="M82 412v139h371v403h139v-403h383v-139h-383v-392h-139v392h-371z" />
<glyph unicode="," horiz-adv-x="471" d="M88 -219q139 88 154 209q-25 -4 -52.5 -4t-57.5 29.5t-30 80.5q0 135 125 135q142 1 142 -157q0 -98 -62.5 -197.5t-159.5 -157.5z" />
<glyph unicode="-" horiz-adv-x="811" d="M123 438v154h565v-154h-565z" />
<glyph unicode="." horiz-adv-x="466" d="M102 102q0 80 31 114t108.5 34t100.5 -33t23 -106.5t-33 -98t-117 -24.5q-113 0 -113 114z" />
<glyph unicode="/" horiz-adv-x="845" d="M41 -295l623 1770h155l-622 -1770h-156z" />
<glyph unicode="0" horiz-adv-x="1191" d="M72 493.5q0 227.5 146.5 391.5t392 164t377.5 -143.5t132 -371t-146.5 -391t-392 -163.5t-377.5 143t-132 370.5zM256 507q0 -181 97.5 -286.5t259 -105.5t242.5 112.5t81 293.5t-98.5 286.5t-259 105.5t-241.5 -112.5t-81 -293.5z" />
<glyph unicode="1" horiz-adv-x="737" d="M98 0v121l164 14q31 4 40 19.5t9 60.5v631l-205 -92v147l261 133h106v-819q0 -45 9.5 -61.5t39.5 -18.5l154 -14v-121h-578z" />
<glyph unicode="2" horiz-adv-x="919" d="M68 0v33q0 121 41 186.5t99 109.5t124 84q144 88 209 140q96 78 96 172t-52.5 144.5t-133 50.5t-179.5 -33l-30 -158h-123l-15 248q199 63 367 63t256 -80.5t88 -226.5t-127 -252q-102 -82 -168.5 -117.5t-102.5 -53.5q-54 -28 -99.5 -62.5t-49.5 -93.5h574v-154h-774z " />
<glyph unicode="3" horiz-adv-x="944" d="M51 -260l31 106q41 -14 153.5 -35.5t165.5 -21.5q135 0 208 87t73 185q0 207 -244 230l-194 16l-11 131q104 16 238 78q72 35 118 95.5t46 136t-51.5 126t-129 50.5t-123.5 -9.5t-63 -11.5l-22 -147h-127l-15 237q231 47 385 47t238 -85t84 -212q0 -221 -268 -331 q141 -35 228 -109t87 -241.5t-120 -290.5t-311 -123t-376 92z" />
<glyph unicode="4" horiz-adv-x="1034" d="M51 152l608 903l99 -103l-508 -798h405v358h162v-358h156v-154h-156v-336h-162v336h-520z" />
<glyph unicode="5" horiz-adv-x="940" d="M41 -252l31 107q47 -14 152.5 -36t152.5 -22q145 0 222 95.5t77 204t-59.5 167t-202.5 78.5l-267 39l54 651h610v-151h-473l-31 -369l215 -33q207 -29 277 -147q53 -92 53 -215q0 -209 -128 -335t-313.5 -126t-369.5 92z" />
<glyph unicode="6" horiz-adv-x="1081" d="M90 536q0 228 65.5 410t219.5 332q223 217 524 217v-127q-240 -10 -413 -200.5t-210 -430.5q66 82 141 112t177 30q194 0 297.5 -120t103.5 -328t-127 -329.5t-344 -121.5q-117 0 -204 46t-136 126q-94 156 -94 384zM280 429q1 -140 75.5 -225t206.5 -85t194.5 90 t62.5 227q0 301 -264 301q-74 0 -132 -26.5t-85 -61.5q-59 -80 -58 -220z" />
<glyph unicode="7" horiz-adv-x="917" d="M41 1032h829v-45q0 -80 -24.5 -146.5t-118.5 -254.5q-454 -893 -485 -948l-140 86q158 274 357.5 654t228.5 496h-409q-41 0 -58.5 -10t-19.5 -45l-13 -137h-129z" />
<glyph unicode="8" horiz-adv-x="1028" d="M82 358q0 141 88 236q72 74 195 162q-117 82 -174.5 165.5t-57.5 194.5q0 193 111.5 286t282.5 93t269.5 -89t98.5 -245q0 -88 -41 -184q-12 -29 -56 -74t-58.5 -56t-77.5 -65q111 -70 165 -118q119 -109 119 -293.5t-126 -287.5t-319.5 -103t-306 92t-112.5 286z M254 368.5q0 -116.5 81 -191.5t200.5 -75t178 65.5t58.5 176.5t-61.5 174.5t-218.5 157.5l-37 20q-105 -75 -153 -143t-48 -184.5zM297 1157q0 -90 62.5 -156.5t211.5 -162.5q59 57 89 92t53.5 97.5t23.5 150.5t-72.5 143t-168.5 55q-199 0 -199 -219z" />
<glyph unicode="9" horiz-adv-x="1058" d="M57 596q0 211 121 331t331 120t331 -143.5t121 -383.5q0 -555 -338 -850q-209 -182 -455 -182l-31 133q219 0 412.5 198.5t224.5 475.5q-104 -152 -301 -152t-306.5 121t-109.5 332zM233 567q0 -279 267 -278q80 0 144.5 33.5t96 81t31.5 185.5t-72.5 227t-218.5 89 q-248 0 -248 -338z" />
<glyph unicode=":" horiz-adv-x="466" d="M102 102q0 80 31 114t108.5 34t100.5 -33t23 -106.5t-33 -98t-117 -24.5q-113 0 -113 114zM102 856q0 80 31 114t108.5 34t100.5 -33t23 -106.5t-33 -98.5t-117 -25q-113 0 -113 115z" />
<glyph unicode=";" horiz-adv-x="471" d="M88 -219q139 88 154 209q-25 -4 -52.5 -4t-57.5 29.5t-30 80.5q0 135 125 135q142 1 142 -157q0 -98 -62.5 -197.5t-159.5 -157.5zM109 856q0 80 30.5 114t108.5 34t100.5 -33t22.5 -106.5t-33 -98.5t-117 -25q-113 0 -112 115z" />
<glyph unicode="&#x3c;" horiz-adv-x="1116" d="M92 492l840 532l76 -102l-666 -430l662 -431l-72 -102z" />
<glyph unicode="=" horiz-adv-x="1114" d="M123 236v135h868v-135h-868zM123 590v135h868v-135h-868z" />
<glyph unicode="&#x3e;" horiz-adv-x="1116" d="M109 61l665 431l-661 430l71 102l840 -532l-840 -533z" />
<glyph unicode="?" horiz-adv-x="921" d="M139 1427q197 66 386.5 66t283.5 -86t94 -225q0 -102 -31.5 -181t-79.5 -125q-91 -85 -207 -153t-124 -172l-10 -178l-123 -15l-11 99q-10 98 -10 163.5t32 110.5t80 76t103.5 68.5t103.5 74.5t79.5 97.5t31.5 134.5q0 190 -217 190q-102 0 -207 -43l-20 -162h-131z M274 109.5q0 74.5 30 98t103.5 23.5t97 -24.5t23.5 -97t-28.5 -102.5t-106.5 -30t-98.5 29t-20.5 103.5z" />
<glyph unicode="@" horiz-adv-x="1572" d="M63 446q0 233 73 404.5t161 265.5q223 236 600 236q287 0 445.5 -165t158.5 -395.5t-113.5 -385t-259.5 -154.5q-96 0 -167 106q-180 -137 -302 -137q-92 0 -163.5 78t-71.5 179.5t39 200.5t90 155q113 121 272 120q107 0 197 -45l131 25l-68 -428q-4 -16 -4 -41 t20.5 -49.5t55.5 -24.5q78 0 135.5 113.5t57.5 269.5q0 203 -136.5 315.5t-336.5 112.5q-92 0 -200 -22.5t-171 -63.5q-96 -59 -182 -241.5t-86 -382.5q0 -248 145 -377t352 -129q276 0 604 153l70 -104q-360 -201 -725 -201q-250 0 -435.5 171t-185.5 441zM573 512 q0 -150 140 -150q41 0 115.5 37t121.5 76l39 301q-68 59 -166 60.5t-149 -54.5q-100 -100 -101 -270z" />
<glyph unicode="A" horiz-adv-x="1357" d="M-31 0v121l78 14q41 8 59.5 25.5t36.5 68.5l441 1246h190l438 -1246q18 -51 38 -68.5t61 -25.5l80 -14v-121h-527v117l113 18q53 8 53 49q0 18 -8 41l-90 260h-543l-86 -254q-8 -23 -8 -43q0 -45 55 -53l111 -18v-117h-492zM438 629h443l-199 577l-23 92l-22 -92z" />
<glyph unicode="B" horiz-adv-x="1265" d="M119 0v121l108 18q37 6 48.5 21.5t11.5 56.5v1040q0 41 -11.5 56.5t-48.5 21.5l-108 19v121h524q236 0 353.5 -70t117.5 -262q0 -137 -73.5 -233.5t-157.5 -116.5q152 -14 243 -98.5t91 -250.5q0 -207 -135.5 -325.5t-368.5 -118.5h-594zM463 143h221q158 0 236 45 q104 63 104 252q0 256 -340 256h-221v-553zM463 836h160q160 0 229.5 52t69.5 220q0 131 -84 177t-242 46h-133v-495z" />
<glyph unicode="C" horiz-adv-x="1302" d="M86 721q0 344 167 559t501 215q121 0 222 -21.5t236 -95.5l-32 -334h-148l-43 226q-80 39 -140.5 55t-163.5 16t-167.5 -28.5t-116 -79.5t-84 -210t-32.5 -288q0 -276 116.5 -436t335.5 -160q170 1 426 97l41 -134q-6 -6 -55 -23.5t-88 -31.5q-187 -67 -361 -67 q-614 0 -614 741z" />
<glyph unicode="D" horiz-adv-x="1470" d="M119 0v123l108 18q37 6 48.5 23.5t11.5 58.5v1043q0 41 -11.5 59t-48.5 23l-108 12v115h612q645 0 645 -715q0 -352 -155.5 -556t-489.5 -204h-612zM463 150h237q246 0 362 141t116 463.5t-114 446.5t-364 124h-237v-1175z" />
<glyph unicode="E" horiz-adv-x="1269" d="M119 0v123l108 18q37 6 48.5 21.5t11.5 56.5v1047q0 41 -11.5 59t-48.5 23l-108 12v115h1052l-12 -353h-131l-12 144q-2 37 -20.5 48t-57.5 11h-475v-481h479v-150h-479v-544h477q39 0 57.5 11t20.5 48l12 153h137l13 -362h-1061z" />
<glyph unicode="F" horiz-adv-x="1187" d="M119 0v121l108 18q37 6 48.5 21.5t11.5 56.5v1057q0 37 -12.5 53t-47.5 21l-108 12v115h1032l-12 -353h-131l-13 144q-2 37 -20.5 48t-56.5 11h-455v-494h438v-149h-438v-465q0 -41 12 -57.5t49 -20.5l146 -16v-123h-551z" />
<glyph unicode="G" horiz-adv-x="1406" d="M92 721q0 344 167 559t501 215q127 0 235.5 -21.5t247.5 -95.5l-33 -334h-147l-43 226q-84 39 -151.5 55t-174 16t-171 -28.5t-116 -79.5t-84 -209t-32.5 -289q0 -270 110.5 -435t337.5 -165q139 0 303 51v273q0 39 -11 55t-48 23l-117 18v121h484v-121l-80 -14 q-37 -8 -46.5 -22.5t-9.5 -55.5v-359q-281 -124 -501 -124h-4q-616 0 -617 741z" />
<glyph unicode="H" horiz-adv-x="1617" d="M119 0v121l108 18q37 6 48.5 21.5t11.5 56.5v1040q0 41 -11.5 56.5t-48.5 21.5l-108 19v121h522v-121l-119 -19q-37 -6 -48 -21.5t-11 -56.5v-411h692v411q0 41 -11 56.5t-48 21.5l-119 19v121h522v-121l-108 -19q-37 -6 -48.5 -21.5t-11.5 -56.5v-1040q0 -41 11.5 -56.5 t48.5 -21.5l108 -18v-121h-522v121l119 18q37 6 48 21.5t11 56.5v481h-692v-481q0 -41 11 -56.5t48 -21.5l119 -18v-121h-522z" />
<glyph unicode="I" horiz-adv-x="749" d="M119 0v121l108 18q37 6 48.5 21.5t11.5 56.5v1040q0 41 -11.5 56.5t-48.5 21.5l-108 19v121h512v-121l-109 -19q-37 -6 -48 -21.5t-11 -56.5v-1040q0 -41 11 -56.5t48 -21.5l109 -18v-121h-512z" />
<glyph unicode="J" horiz-adv-x="698" d="M-51 -205q223 137 280.5 235.5t57.5 336.5v890q0 41 -11.5 56.5t-48.5 21.5l-108 19v121h512v-121l-109 -19q-37 -6 -48 -21.5t-11 -56.5v-954q0 -195 -28.5 -267.5t-53.5 -109.5q-61 -91 -352 -241z" />
<glyph unicode="K" horiz-adv-x="1323" d="M119 0v121l108 18q37 6 48.5 21.5t11.5 56.5v1040q0 41 -11.5 56.5t-48.5 21.5l-108 19v121h520v-121l-117 -19q-37 -6 -48 -21.5t-11 -56.5v-432l522 561q82 88 191 89h100v-127q-68 0 -108 -15.5t-91 -68.5l-413 -449l368 -502q82 -113 130 -151.5t99.5 -38.5t92.5 14 l-13 -119q-73 -39 -165 -39q-1 1 -2 1q-93 0 -152 52t-139 167l-420 587v-569q0 -41 11 -56.5t48 -21.5l117 -18v-121h-520z" />
<glyph unicode="L" horiz-adv-x="1138" d="M119 0v121l108 18q37 6 48.5 21.5t11.5 56.5v1040q0 41 -11.5 56.5t-48.5 21.5l-108 19v121h524v-121l-121 -19q-37 -6 -48 -21.5t-11 -56.5v-1107h407q39 0 57.5 11t20.5 48l13 153h137l12 -362h-991z" />
<glyph unicode="M" horiz-adv-x="1828" d="M39 0v121l108 18q37 6 46.5 20.5t13.5 55.5l72 1065q0 53 -62 61l-106 13v121h409l406 -1201l362 1201h434v-121l-114 -13q-37 -4 -50.5 -18t-13.5 -47l82 -1061q4 -41 13.5 -55.5t46.5 -20.5l120 -18v-121h-524v121l111 12q59 8 59 66l-76 1052l-391 -1251h-145 l-434 1251l-50 -1048q2 -33 14.5 -49.5t47.5 -20.5l108 -12v-121h-487z" />
<glyph unicode="N" horiz-adv-x="1611" d="M119 0v121l108 18q37 6 48.5 21.5t11.5 56.5v1043q0 41 -11.5 59t-48.5 22l-106 13v121h344l735 -1151v936q0 41 -10 59t-47 22l-107 13v121h506v-121l-106 -13q-37 -4 -48.5 -22.5t-11.5 -58.5v-1260h-180l-733 1151v-934q0 -41 11 -56.5t48 -21.5l109 -18v-121h-512z " />
<glyph unicode="O" d="M86 698.5q0 190.5 39 322.5t120 240.5t218 171t333.5 62.5t334 -100.5t194.5 -264t57 -354t-38.5 -322.5t-119.5 -241t-218.5 -171t-334 -62t-333.5 100t-194.5 264t-57.5 354.5zM285 725q0 -279 123.5 -436.5t342 -157.5t316.5 113q51 59 84 209.5t33 296.5 q0 278 -124 435.5t-342 157.5t-317 -112q-51 -59 -83.5 -210t-32.5 -296z" />
<glyph unicode="P" horiz-adv-x="1165" d="M119 0v121l108 18q37 6 48.5 21.5t11.5 56.5v1040q0 41 -11.5 56.5t-48.5 21.5l-108 19v121h538q233 0 355.5 -83t122.5 -309.5t-158 -369t-367 -142.5h-147v-354q0 -41 12 -57.5t49 -20.5l146 -16v-123h-551zM463 715h141q166 0 225.5 48t83 117.5t23.5 192.5 q0 258 -297 258h-176v-616z" />
<glyph unicode="Q" d="M86 698.5q0 190.5 39 322.5t120 240.5t218 171t333.5 62.5t334 -100.5t194.5 -264t57 -354t-38.5 -322.5t-119.5 -241t-218.5 -171t-334 -62t-333.5 100t-194.5 264t-57.5 354.5zM285 725q0 -279 123.5 -436.5t342 -157.5t316.5 113q51 59 84 209.5t33 296.5 q0 278 -124 435.5t-342 157.5t-317 -112q-51 -59 -83.5 -210t-32.5 -296zM422 -168q129 68 251 68t311.5 -61.5t264 -61.5t156.5 41l31 -109q-20 -23 -82 -57.5t-160 -34.5t-287.5 67.5t-270.5 67.5t-173 -26z" />
<glyph unicode="R" horiz-adv-x="1306" d="M119 0v121l108 18q37 6 48.5 21.5t11.5 56.5v1040q0 41 -11.5 56.5t-48.5 21.5l-108 19v121h538q227 0 348 -84t121 -298t-184 -319q-92 -53 -186 -65q61 -14 133 -127l225 -353q69 -108 160 -108h2q29 0 72 14l-11 -112q-57 -43 -161 -43q-127 0 -240 172l-274 436 q-53 82 -125 82h-74v-453q0 -41 12 -57.5t49 -20.5l133 -16v-123h-538zM463 813h182q139 0 201 51q82 68 82 221q0 246 -312 246h-153v-518z" />
<glyph unicode="S" horiz-adv-x="1099" d="M94 74l25 329h149l31 -208q119 -72 259 -72t226 66.5t86 172t-52 163t-200 112.5l-249 94q-125 47 -200 141.5t-75 231.5q0 178 118 283.5t324.5 105.5t438.5 -55l-29 -318h-147l-31 185q-111 51 -240 51q-245 0 -245 -226q0 -94 53 -152t186 -106l174 -61 q156 -55 228.5 -113.5t100.5 -126t28 -157.5q0 -197 -138.5 -315.5t-394.5 -118.5q-174 0 -297 45q-43 14 -129 49z" />
<glyph unicode="T" horiz-adv-x="1241" d="M14 1475h1213l-13 -353h-131l-12 150q-2 37 -20.5 48t-57.5 11h-284v-1114q0 -41 11 -56.5t48 -21.5l117 -18v-121h-529v121l117 18q37 6 48 21.5t11 56.5v1114h-286q-39 0 -56.5 -11t-19.5 -48l-12 -150h-131z" />
<glyph unicode="U" horiz-adv-x="1476" d="M57 1354v121h512v-121l-108 -19q-37 -6 -48.5 -21.5t-11.5 -56.5v-749q0 -365 381 -365q147 0 226 74t79 307v733q0 41 -11 56.5t-48 21.5l-108 19v121h503v-121l-108 -19q-37 -6 -48.5 -21.5t-11.5 -56.5v-782q0 -172 -84 -287q-146 -208 -449 -208h-3q-244 0 -369 128 t-125 367v782q0 41 -11 56.5t-48 21.5z" />
<glyph unicode="V" horiz-adv-x="1355" d="M-12 1356v121h551v-119l-109 -12q-33 -4 -46 -11.5t-13 -26t10 -48.5l340 -996l301 996q8 33 8 43q0 37 -63 43l-109 12v119h510v-121l-76 -8q-41 -4 -60.5 -20.5t-37.5 -67.5l-410 -1258h-149l-455 1258q-16 49 -45 65t-76 23z" />
<glyph unicode="W" horiz-adv-x="1927" d="M-6 1354v121h553v-119l-117 -13q-57 -3 -57 -37q0 -16 4 -49l235 -1060l271 1126h225l274 -1126l222 1060q2 12 2 35q0 43 -68 51l-108 13v119h497v-121l-72 -8q-29 -4 -45 -11q-33 -10 -47 -78l-270 -1257h-248l-264 1071l-258 -1071h-250l-287 1257q-10 49 -37.5 65.5 t-74.5 23.5z" />
<glyph unicode="X" horiz-adv-x="1398" d="M12 0v121l78 10q88 8 139 86l361 543l-354 497q-33 49 -54.5 64.5t-66.5 21.5l-78 11v121h549v-119l-115 -13q-39 -2 -39 -28q0 -20 25 -58l256 -364l233 364q27 41 27 60q0 25 -37 26l-105 13v119h521v-121l-78 -11q-98 -12 -146 -86l-323 -495l385 -545 q31 -43 54.5 -62.5t58.5 -23.5l77 -10v-121h-563v119l125 12q55 4 55 41q0 16 -18 45l-299 416l-264 -416q-23 -35 -23 -55q0 -29 41 -31l125 -12v-119h-547z" />
<glyph unicode="Y" horiz-adv-x="1372" d="M-8 1354v121h551v-119l-103 -13q-65 -10 -65 -37q0 -15 16 -49l322 -579l307 579q14 27 14 43q0 31 -71 41l-103 13v121h508v-121l-78 -11q-41 -6 -58.5 -21t-43.5 -65l-414 -733v-307q0 -41 11.5 -56.5t48.5 -21.5l116 -18v-121h-528v121l117 18q37 6 48 21.5t11 56.5 v303l-405 737q-27 45 -51.5 62.5t-71.5 23.5z" />
<glyph unicode="Z" horiz-adv-x="1277" d="M119 0v150l842 1181h-574q-39 0 -57.5 -11t-20.5 -48l-12 -144h-135l-12 347h1019v-144l-841 -1181h643q39 0 57.5 11t20.5 48l12 153h137l12 -362h-1091z" />
<glyph unicode="[" horiz-adv-x="743" d="M205 -492v2089h461v-124h-308v-1840h308v-125h-461z" />
<glyph unicode="\" horiz-adv-x="845" d="M41 1417l133 58l623 -1770l-133 -57z" />
<glyph unicode="]" horiz-adv-x="743" d="M78 -367h307v1840h-307v124h461v-2089h-461v125z" />
<glyph unicode="^" horiz-adv-x="1177" d="M127 743l383 732h149l396 -715l-115 -66l-360 629l-351 -629z" />
<glyph unicode="_" horiz-adv-x="1024" d="M0 -242h1024v-110h-1024v110z" />
<glyph unicode="`" horiz-adv-x="600" d="M92 1438l119 123l319 -361q-53 -45 -90 -45t-67 29z" />
<glyph unicode="a" horiz-adv-x="1079" d="M76 245q0 120 71.5 195.5t206.5 94.5l332 45v137q0 164 -221 164q-94 0 -180 -39l-29 -150h-119l-14 236q211 76 360.5 76t257 -70t107.5 -213v-520q0 -45 8 -60.5t39 -17.5l115 -12v-111h-299l-17 160q-170 -180 -360 -180q-117 0 -187.5 72.5t-70.5 192.5zM246 260.5 q0 -65.5 42 -100.5t107 -35q111 0 291 162v182l-285 -47q-74 -10 -114.5 -53t-40.5 -108.5z" />
<glyph unicode="b" horiz-adv-x="1155" d="M51 1491v106h326v-735q119 141 317 142q166 0 273.5 -127t107.5 -358.5t-126 -385t-363 -153.5q-199 0 -371 92v1329q0 43 -10 59.5t-41 18.5zM377 199q98 -84 245.5 -84t202.5 67q74 106 74 304t-75.5 290t-198.5 92q-82 0 -148.5 -45t-99.5 -94v-530z" />
<glyph unicode="c" horiz-adv-x="972" d="M82 463.5q0 238.5 127 389.5t340 151q94 0 182 -24t133 -52l-14 -252h-119l-29 153q-70 39 -204 39q-49 0 -100.5 -18.5t-69.5 -48.5q-70 -98 -70 -328q0 -160 75 -259t212 -99q100 0 321 55l25 -104q-4 -2 -32 -12.5t-47 -18.5q-45 -19 -126.5 -37t-163.5 -18 q-217 0 -328.5 122.5t-111.5 361z" />
<glyph unicode="d" horiz-adv-x="1165" d="M80 457.5q0 224.5 131 385.5t354 161q102 0 213 -37v434q0 43 -10 59.5t-41 18.5l-123 12v106h336v-1396q0 -45 8 -60.5t39 -17.5l119 -12v-111h-303l-17 139q-20 -31 -50.5 -60.5t-106.5 -64t-164 -34.5q-178 0 -281.5 126.5t-103.5 351zM256 489q0 -374 263 -374h1 q94 0 168 58t90 99v516q-80 80 -226 80t-210 -55q-41 -35 -63.5 -137.5t-22.5 -186.5z" />
<glyph unicode="e" horiz-adv-x="991" d="M74 480.5q0 232.5 120.5 378t339 145.5t298 -126t79.5 -382l-659 -47q10 -334 301 -334q143 0 321 59l29 -100q-59 -31 -173 -63q-110 -31 -227 -31h-7q-215 0 -318.5 134t-103.5 366.5zM250 571l500 43q0 115 -47.5 184.5t-194 69.5t-192.5 -55.5t-66 -241.5z" />
<glyph unicode="f" horiz-adv-x="684" d="M76 877v98l166 18h4v215q0 201 105.5 305.5t283.5 104.5q102 0 207 -39l-62 -152q-8 2 -70.5 25t-142.5 23t-119.5 -41t-39.5 -111v-330l262 21v-137h-262v-676q0 -45 8 -60.5t39 -17.5l159 -14v-109h-532v111l117 12q31 2 39 17.5t8 60.5v676h-170z" />
<glyph unicode="g" horiz-adv-x="1021" d="M49 -391l43 252h113v-154q109 -72 313 -72q137 0 208 36t71 128q0 45 -36 64.5t-173 35t-258 38.5q-145 29 -146 182l105 164q-217 82 -217 346q0 150 108.5 263.5t331.5 113.5h8q168 0 251 5t206 38v-111q-76 -49 -160 -55q76 -94 76 -253t-122 -266.5t-308 -107.5 q-41 0 -62 2l-45 -121q0 -33 64 -43q178 -23 342 -49q196 -31 196 -209q0 -145 -134 -246.5t-349 -101.5q-135 0 -249.5 33t-176.5 88zM242 638q0 -124 61.5 -193.5t190.5 -69.5t188 82q41 55 41 182q0 252 -254 252q-137 0 -182 -64.5t-45 -188.5z" />
<glyph unicode="h" horiz-adv-x="1284" d="M82 1491v106h326v-761q45 47 75.5 74.5t105.5 60.5t159 33q162 0 236.5 -85t74.5 -214v-504q0 -45 8 -60.5t39 -17.5l113 -12v-111h-322v664q0 90 -57.5 139t-153.5 49t-170 -47t-108 -111v-493q0 -45 8 -60.5t39 -17.5l123 -14v-109h-492v111l113 12q31 2 39 17.5 t8 60.5v1198q0 45 -8.5 61.5t-38.5 18.5z" />
<glyph unicode="i" horiz-adv-x="632" d="M86 0v111l113 12q31 4 39 18.5t8 59.5v585q0 45 -8.5 60.5t-38.5 17.5l-113 13v106h322v-782q0 -45 8 -59.5t39 -18.5l112 -12v-111h-481zM182 1337.5q0 63.5 29 94t99.5 30.5t92 -29.5t21.5 -97t-28.5 -91t-96.5 -23.5t-92.5 26.5t-24.5 90z" />
<glyph unicode="j" horiz-adv-x="591" d="M-47 -430q129 80 179 130t71.5 125.5t21.5 225.5v735q0 45 -8 60.5t-39 17.5l-112 13v106h321v-989q0 -154 -23.5 -231.5t-90 -138t-220.5 -136.5zM164 1337.5q0 63.5 28.5 94t99 30.5t92.5 -29.5t22 -97t-29 -91t-96.5 -23.5t-92 26.5t-24.5 90z" />
<glyph unicode="k" horiz-adv-x="1110" d="M86 0v111l113 12q31 4 39 18.5t8 59.5v1200q0 45 -8.5 60.5t-38.5 17.5l-113 12v106h322v-1005l288 293q59 59 100.5 78.5t96.5 19.5h92v-119h-33q-47 0 -102 -30.5t-92 -64.5t-92 -93l-82 -86v-15l247 -317q111 -145 224 -145q16 0 43.5 5t31.5 5l-20 -113 q-79 -30 -135 -30h-4q-117 0 -211 124l-352 455v-358q0 -45 8 -59.5t39 -18.5l96 -17v-106h-465z" />
<glyph unicode="l" horiz-adv-x="632" d="M86 0v111l113 12q31 4 39 18.5t8 59.5v1204q0 43 -8.5 57.5t-38.5 16.5l-113 12v106h322v-1396q0 -45 8 -59.5t39 -18.5l112 -12v-111h-481z" />
<glyph unicode="m" horiz-adv-x="1871" d="M86 0v111l113 12q31 2 39 17.5t8 60.5v585q0 45 -8.5 60.5t-38.5 17.5l-113 13v106h301l19 -149q45 47 74.5 74.5t104 61.5t158.5 34q193 0 263 -164q135 164 340 164q154 0 227.5 -86.5t73.5 -208.5v-508q0 -45 8 -59.5t39 -18.5l112 -12v-111h-321v659 q0 92 -53.5 142.5t-153.5 50.5q-137 0 -250 -121l2 -22v-508q0 -45 8.5 -60.5t38.5 -17.5l123 -14v-109h-332v659q0 193 -192 193q-82 0 -158 -46t-110 -110v-495q0 -45 8 -60.5t39 -17.5l123 -14v-109h-492z" />
<glyph unicode="n" horiz-adv-x="1284" d="M86 0v111l113 12q31 2 39 17.5t8 60.5v585q0 45 -8.5 60.5t-38.5 17.5l-113 13v106h301l19 -147q47 49 77.5 75.5t105.5 59.5t159 33q164 0 237.5 -84t73.5 -209v-510q0 -45 8 -59.5t39 -18.5l113 -12v-111h-322v662q0 92 -57.5 141t-153.5 49t-170 -47t-108 -109v-495 q0 -45 8 -60.5t39 -17.5l123 -14v-109h-492z" />
<glyph unicode="o" horiz-adv-x="1112" d="M82 469.5q0 215.5 115 366.5q57 76 158.5 122t234.5 46q227 0 333.5 -137.5t106.5 -352.5t-115 -367q-57 -76 -158.5 -121.5t-234.5 -45.5q-227 0 -333.5 137t-106.5 352.5zM258 483q0 -172 82 -270t226.5 -98t194.5 50t71.5 145.5t21.5 189.5q0 172 -82 270t-226.5 98 t-194.5 -50t-71.5 -145t-21.5 -190z" />
<glyph unicode="p" horiz-adv-x="1165" d="M61 -381l117 12q31 2 39 17.5t8 60.5v1077q0 45 -8 60.5t-39 17.5l-112 13v106h301l16 -131q129 152 318.5 152t286.5 -134.5t97 -362.5t-141 -377.5t-354 -149.5q-123 0 -203 43v-314q0 -45 8 -60.5t39 -17.5l150 -14v-109h-523v111zM387 193q92 -78 232.5 -78t205.5 63 q39 43 61.5 133t22.5 195q0 176 -71.5 269t-204.5 93q-74 0 -150 -51t-96 -90v-534z" />
<glyph unicode="q" horiz-adv-x="1146" d="M80 466.5q0 233.5 126 385.5t351 152q86 0 148.5 -21.5t74.5 -24.5l162 25v-1274q0 -45 8 -60.5t39 -17.5l113 -12v-111h-518v109l149 14q31 2 39 17.5t8 60.5v406q-117 -135 -325 -135q-166 0 -270.5 126.5t-104.5 360zM256 489q0 -188 72.5 -281t206.5 -93 q92 0 160.5 44t84.5 85v575q-33 20 -105.5 34.5t-135.5 14.5q-119 0 -174.5 -44t-82 -138t-26.5 -197z" />
<glyph unicode="r" horiz-adv-x="901" d="M82 0v111l117 12q31 2 39 17.5t8 60.5v585q0 45 -8.5 60.5t-38.5 17.5l-113 13v106h293l20 -205q31 80 120 153t191.5 73t170.5 -39l-17 -258h-119l-22 131q-29 14 -76 14q-88 0 -154.5 -76t-84.5 -155v-420q0 -45 8 -60.5t39 -17.5l149 -14v-109h-522z" />
<glyph unicode="s" horiz-adv-x="901" d="M88 51l14 248h123l19 -149q106 -43 188 -44q227 0 227 150q0 59 -62 100t-210.5 87t-216.5 113t-68 191.5t103.5 190.5t247 66t327.5 -58l-14 -239h-119l-29 149q-82 31 -169 31q-186 0 -187 -129q0 -63 57.5 -100t209 -87.5t224 -112t72.5 -171.5q0 -141 -111.5 -224 t-279.5 -83t-346 71z" />
<glyph unicode="t" horiz-adv-x="724" d="M41 866v99l154 18v182l161 37v-219l273 21v-138h-273v-465q0 -164 36 -228t161 -64q53 0 145 14l-18 -105q-29 -14 -104.5 -26t-140 -12t-112 19t-73 47t-40.5 94.5t-15 230.5v495h-154z" />
<glyph unicode="u" horiz-adv-x="1241" d="M55 877v106h322v-655q0 -197 201 -197q94 0 173.5 56.5t102.5 97.5v501q0 45 -8 60.5t-39 17.5l-113 13v106h322v-782q0 -45 8 -60.5t39 -17.5l115 -12v-111h-295l-17 156q-150 -176 -336 -176q-152 0 -233.5 75.5t-81.5 216.5v514q0 45 -8 60.5t-39 17.5z" />
<glyph unicode="v" horiz-adv-x="1054" d="M-35 877v106h475v-104l-104 -13q-47 -6 -47 -35q0 -4 12 -45l195 -512l41 -141l41 141l194 512q10 31 10 43q0 31 -49 37l-104 13v104h448v-106l-90 -13q-39 -4 -53 -41l-318 -823h-182l-309 786q-8 16 -10 24.5t-5.5 16t-5.5 10.5t-6 8t-16 12t-27 7z" />
<glyph unicode="w" horiz-adv-x="1558" d="M2 877v106h473v-104l-104 -13q-47 -6 -47 -35q0 -4 12 -45l141 -516l21 -114l22 114l180 609h160l187 -609l24 -125l21 125l141 516q10 31 10 43q0 31 -49 37l-104 13v104h448v-106l-90 -13q-47 -6 -70 -78l-239 -786h-168l-189 592l-16 82l-16 -82l-183 -592h-168 l-237 786q-8 16 -10 24.5t-5.5 16t-5.5 10.5t-6 8t-16 12t-27 7z" />
<glyph unicode="x" horiz-adv-x="1089" d="M23 0v106l67 13q63 12 117 76l250 303l-260 309q-29 35 -44.5 45t-48.5 16l-67 13v102h436v-100l-88 -13q-25 -2 -25 -15t17 -30l18 -18l174 -207l170 207q4 6 19.5 21t15.5 27.5t-26 14.5l-89 13v100h408v-102l-68 -13q-39 -6 -59 -17t-47 -44l-244 -301l264 -311 q57 -68 101 -76l67 -13v-106h-446v104l92 13q25 4 25 16q0 18 -39 64l-176 206l-172 -208q-41 -53 -41 -63.5t22 -14.5l92 -13v-104h-415z" />
<glyph unicode="y" horiz-adv-x="1071" d="M-29 877v106h475v-104l-104 -13q-47 -6 -47 -35q0 -14 12 -45l236 -630l229 630q10 31 10 43q0 31 -49 37l-104 13v104h448v-106l-90 -13q-39 -4 -54 -41t-413 -1089q-88 -246 -305 -246q-115 0 -184 25l-21 120q104 -16 148 -16q80 0 144.5 54.5t100.5 154.5l48 129 l-320 831q-8 16 -10 24.5t-5 16t-5 10.5t-7 8q-6 7 -18 11q-10 8 -25 8z" />
<glyph unicode="z" horiz-adv-x="1030" d="M88 0v123l631 735h-400q-45 0 -61 -8t-18 -39l-15 -133h-110l-15 305h824v-119l-631 -735h436q45 0 61.5 8t18.5 39l14 150h113l12 -326h-860z" />
<glyph unicode="{" horiz-adv-x="690" d="M86 508v86q150 0 150 319v455q0 96 51 162.5t143 66.5h160v-98h-76q-70 0 -94.5 -44t-24.5 -138v-436q0 -121 -51 -222.5t-121 -107.5q70 -6 121 -107.5t51 -222.5v-436q0 -94 24.5 -138t94.5 -44h76v-99h-160q-92 0 -143 67t-51 163v454q0 320 -150 320z" />
<glyph unicode="|" horiz-adv-x="612" d="M236 -492v2110h141v-2110h-141z" />
<glyph unicode="}" horiz-adv-x="690" d="M86 -397h76q70 0 94.5 44t24.5 138v436q0 123 50 223.5t120 106.5q-70 6 -120 106.5t-50 223.5v436q0 94 -25 138t-94 44h-76v98h160q92 0 143 -66.5t51 -162.5v-455q0 -319 150 -319v-86q-150 0 -150 -320v-454q0 -96 -51 -163t-143 -67h-160v99z" />
<glyph unicode="~" horiz-adv-x="1167" d="M147 506q178 145 279 145q70 0 187.5 -57t177 -57t204.5 79l25 -96q-135 -131 -260 -131q-64 0 -184.5 57.5t-161.5 57.5q-98 0 -242 -94z" />
<glyph unicode="&#xa1;" horiz-adv-x="661" d="M205 866q0 70 22.5 104t98.5 34q145 0 145 -138q0 -129 -133 -129t-133 129zM231 -492l9 332l30 787h125l33 -787l6 -332h-203z" />
<glyph unicode="&#xa2;" horiz-adv-x="983" d="M92 647q0 207 95.5 349.5t263.5 179.5l-11 274h146l-11 -262q190 -6 299 -76l-14 -252h-119l-28 154q-70 39 -205 39q-49 0 -100.5 -18.5t-69.5 -49.5q-70 -98 -70 -328q0 -150 75 -244t212 -94q101 1 322 56l24 -105q-94 -47 -185 -64.5t-134 -19.5l10 -264h-146l11 266 q-365 41 -365 459z" />
<glyph unicode="&#xa3;" horiz-adv-x="1216" d="M111 100q55 8 130.5 53.5t75.5 190.5q0 49 -12 234h-178v122h168q-12 135 -12 243t34.5 201t83 143t135 90t197.5 40q182 0 293 -80l-88 -180q-131 98 -274 98q-100 0 -150.5 -53t-50.5 -146t16 -356h328l-37 -122h-287q4 -106 4 -158q0 -166 -108 -275q94 23 157.5 23 t174 -19.5t157.5 -19.5q92 0 93 86v111h122l25 -318q-81 -52 -446 -9q-160 19 -252.5 19t-237.5 -47z" />
<glyph unicode="&#xa4;" horiz-adv-x="1056" d="M61 1094l115 100l158 -205q88 49 200.5 49t196.5 -51l150 195l114 -97l-166 -182q82 -106 82 -241.5t-94 -245.5l168 -187l-117 -98l-153 199q-92 -51 -198.5 -51t-180.5 34l-154 -198l-114 96l163 180q-100 106 -100 257t98 257zM283 649.5q0 -106.5 70.5 -169 t176 -62.5t166 69.5t60.5 175t-69 168t-174 62.5t-167.5 -68.5t-62.5 -175z" />
<glyph unicode="&#xa5;" horiz-adv-x="1400" d="M35 1272v121h551v-119l-103 -12q-66 -10 -65 -39q0 -14 16 -47l285 -480l274 480q14 27 15 43q0 31 -72 41l-102 12v121h507v-121l-77 -10q-41 -6 -58.5 -21.5t-44.5 -64.5l-368 -619v-86h239l-20 -123h-219v-131q0 -41 11 -56.5t48 -21.5l117 -18v-121h-529v121l117 18 q37 6 48 21.5t11 56.5v131h-239l20 123h219v49l-380 656q-27 45 -51.5 62t-71.5 24z" />
<glyph unicode="&#xa6;" horiz-adv-x="622" d="M236 287h151v-779h-151v779zM236 840v778h151v-778h-151z" />
<glyph unicode="&#xa7;" horiz-adv-x="1044" d="M82 -238l31 291h127l18 -180q121 -70 233.5 -70t181 53.5t68.5 131.5t-41 123t-153 92l-209 88q-115 47 -170 115.5t-55 171t30.5 149.5t139.5 143q-156 102 -156 295q0 150 103.5 240t284.5 90t370 -47l-23 -281h-127l-24 158q-98 43 -205 43q-203 0 -203 -182 q0 -74 44 -121t155 -86l174 -66q139 -63 186 -102q100 -86 101 -223q0 -94 -37 -156.5t-138 -140.5q129 -92 130 -279q0 -154 -124 -249t-328 -95t-384 94zM289 618q0 -61 40 -101t144 -81l148 -59l47 -21q70 53 94 95.5t24 106t-47 106.5t-155 84l-181 67 q-114 -101 -114 -197z" />
<glyph unicode="&#xa8;" horiz-adv-x="1120" d="M236 1318.5q0 61.5 27.5 90.5t94 29t87 -28t20.5 -92.5t-27.5 -87t-91 -22.5t-87 24.5t-23.5 86zM655 1318.5q0 61.5 28 90.5t94.5 29t87 -28t20.5 -92.5t-28 -87t-91.5 -22.5t-87 24.5t-23.5 86z" />
<glyph unicode="&#xa9;" horiz-adv-x="1687" d="M96 737.5q0 313.5 222.5 535.5t535.5 222t535.5 -222t222.5 -535.5t-222.5 -535.5t-535.5 -222t-535.5 222t-222.5 535.5zM199 736.5q0 -269.5 193.5 -462t461.5 -192.5t461.5 192.5t193.5 462t-193.5 463t-462.5 193.5t-461.5 -193.5t-192.5 -463zM477 725 q0 201 107.5 323.5t292.5 122.5q135 0 251 -63l-12 -221h-108l-23 129q-57 33 -156.5 33t-138.5 -58q-59 -92 -59 -245.5t63.5 -232.5t169.5 -79t258 49l21 -100q-49 -25 -133 -48t-156 -24q-184 0 -280.5 106.5t-96.5 307.5z" />
<glyph unicode="&#xaa;" horiz-adv-x="671" d="M51 1042.5q0 75.5 45 123.5t131 61l193 28v60q0 100 -127 100q-43 0 -113 -26l-16 -89h-76l-8 152q123 43 221 43t162.5 -41t64.5 -127v-311q0 -25 5.5 -34t23.5 -11l66 -8v-76h-187l-10 96q-96 -109 -211 -109q-74 0 -119 46.5t-45 122zM66 666v114h546v-114h-546z M170 1053q0 -76 76 -76t174 98v92l-164 -24q-86 -14 -86 -90z" />
<glyph unicode="&#xab;" horiz-adv-x="1001" d="M115 485l305 396q8 -8 20.5 -21.5t26.5 -27.5t14 -39t-16 -56l-158 -252l158 -252q16 -31 16 -49t-7 -32.5t-12 -20.5t-22.5 -22.5t-19.5 -18.5zM477 485l305 396q8 -8 20.5 -21.5t26.5 -27.5q32 -32 -2 -95l-157 -252l157 -252q26 -50 14 -73t-17 -29t-22.5 -22.5 t-19.5 -18.5z" />
<glyph unicode="&#xac;" horiz-adv-x="1079" d="M82 575v140h915v-455h-133v315h-782z" />
<glyph unicode="&#xad;" horiz-adv-x="811" d="M123 438v154h565v-154h-565z" />
<glyph unicode="&#xae;" horiz-adv-x="1064" d="M111 1156q0 173 118.5 292t291.5 119t292 -119t119 -292t-119 -292t-292 -119t-291.5 119t-118.5 292zM186 1155q0 -139 97.5 -236.5t236.5 -97.5t237.5 97.5t98.5 236.5t-98.5 237.5t-237.5 98.5t-236.5 -98.5t-97.5 -237.5zM346 924v41l35 6q16 6 16 28v314 q0 25 -16 30l-35 5v47h174q152 0 152 -129q0 -96 -121 -133q25 -6 51 -46l57 -77q29 -39 45.5 -39t28.5 4l-4 -49q-31 -6 -51 -6q-39 0 -78 61l-76 109q-12 23 -47 22h-12v-113q0 -27 14 -28l43 -6v-41h-176zM465 1178h53q82 0 82 92q0 39 -23.5 53t-72.5 14h-39v-159z" />
<glyph unicode="&#xaf;" horiz-adv-x="770" d="M119 1266l20 143h547l-20 -143h-547z" />
<glyph unicode="&#xb0;" horiz-adv-x="651" d="M25 1200q0 129 85 212t216 83t216 -83t85 -212t-85 -212t-216 -83t-216 83t-85 212zM143 1200q0 -86 48.5 -136t134.5 -50t134 50t48 136t-48 136t-134 50t-134.5 -50t-48.5 -136z" />
<glyph unicode="&#xb1;" horiz-adv-x="1056" d="M82 29v139h893v-139h-893zM82 633v139h371v363h139v-363h383v-139h-383v-350h-139v350h-371z" />
<glyph unicode="&#xb2;" horiz-adv-x="735" d="M61 571v29q0 139 70 217q37 41 65.5 62.5t95 64.5t106.5 74t81 89t41 122q0 150 -155 149q-80 0 -146 -28l-29 -144h-104l-12 224q172 57 315 57t214 -66.5t71 -189.5t-88 -211q-80 -80 -222 -168q-59 -37 -74 -52q-37 -37 -45.5 -59t-8.5 -47h438v-123h-613z" />
<glyph unicode="&#xb3;" horiz-adv-x="731" d="M51 610l29 95q154 -51 249 -51.5t146 53t51 118.5q0 137 -176 154l-125 12l-8 96q289 53 289 199q0 43 -39 70.5t-111.5 27.5t-128.5 -16l-20 -113h-96l-13 191q168 41 297 41t191.5 -54.5t62.5 -129.5q0 -166 -209 -238q111 -27 174 -68q66 -49 66 -166.5t-92 -201.5 t-240.5 -84t-296.5 65z" />
<glyph unicode="&#xb4;" horiz-adv-x="583" d="M72 1200l319 361l119 -123l-281 -254q-31 -29 -67.5 -29t-89.5 45z" />
<glyph unicode="&#xb6;" horiz-adv-x="1159" d="M72 1031q0 214 97 329t349 115h158v-1811h-158v971q-246 0 -346 91t-100 305zM817 -336v1811h158v-1811h-158z" />
<glyph unicode="&#xb7;" horiz-adv-x="446" d="M102 573q0 72 28 103t100.5 31t93 -30t20.5 -97.5t-29.5 -91t-105.5 -23.5q-106 0 -107 108z" />
<glyph unicode="&#xb8;" horiz-adv-x="659" d="M135 -428l25 80q72 -29 147 -29q100 0 101 98q0 31 -23 47.5t-70 26.5l-75 17l39 215l92 -25v-129l55 -18q66 -20 88.5 -49t22.5 -80q0 -94 -67 -145.5t-155 -51.5t-180 43z" />
<glyph unicode="&#xb9;" horiz-adv-x="624" d="M92 1225v129l244 119h82v-728q0 -41 7 -55t36 -16l123 -12v-99h-459v99l119 12q29 2 37 17.5t8 53.5v564z" />
<glyph unicode="&#xba;" horiz-adv-x="677" d="M51 1184q0 125 77 218t223.5 93t211 -84t64.5 -217t-77 -226.5t-233 -93.5q-266 0 -266 310zM66 666v114h546v-114h-546zM170 1200q0 -233 180 -233q76 0 117 37.5t41 161.5t-46 180.5t-129 56.5t-123 -40t-40 -163z" />
<glyph unicode="&#xbb;" horiz-adv-x="1001" d="M158 178.5q0 24.5 16 54.5l158 252l-158 252q-16 31 -16 50.5t8 33t27.5 32.5t25.5 28l305 -396l-305 -395q-2 2 -19.5 18.5t-29.5 31t-12 39zM528 820q9 14 28 33t26 28l305 -396l-305 -395q-2 2 -19.5 18.5t-29.5 31.5q-29 35 4 93l157 252l-157 252q-28 53 -9 83z" />
<glyph unicode="&#xbc;" horiz-adv-x="1585" d="M92 1225v129l244 119h82v-728q0 -41 7 -55t36 -16l123 -12v-99h-459v99l119 12q29 2 37 17.5t8 53.5v564zM358 0l920 1495h123l-922 -1495h-121zM844 315l467 609l84 -72l-391 -537h307v269h129v-269h145v-110h-145v-205h-129v205h-412z" />
<glyph unicode="&#xbd;" horiz-adv-x="1783" d="M92 1225v129l244 119h82v-728q0 -41 7 -55t36 -16l123 -12v-99h-459v99l119 12q29 2 37 17.5t8 53.5v564zM358 0l920 1495h123l-922 -1495h-121zM1110 0v29q0 139 70 217q37 41 65.5 62.5t95 64.5t106.5 73.5t81 89t41 121.5q0 150 -156 150q-80 0 -145 -29l-29 -143 h-104l-13 223q172 57 315.5 57t214 -66.5t70.5 -189t-88 -210.5q-68 -68 -133 -111t-87.5 -57.5t-31 -19.5t-26 -18.5t-24.5 -20.5q-48 -48 -48 -99h438v-123h-612z" />
<glyph unicode="&#xbe;" horiz-adv-x="1628" d="M51 610l29 95q154 -51 249 -51.5t146 53t51 118.5q0 137 -176 154l-125 12l-8 96q289 53 289 199q0 43 -39 70.5t-111.5 27.5t-128.5 -16l-20 -113h-96l-13 191q168 41 297 41t191.5 -54.5t62.5 -129.5q0 -166 -209 -238q111 -27 174 -68q66 -49 66 -166.5t-92 -201.5 t-240.5 -84t-296.5 65zM401 0l920 1495h123l-922 -1495h-121zM887 315l467 609l84 -72l-391 -537h307v269h129v-269h145v-110h-145v-205h-129v205h-412z" />
<glyph unicode="&#xbf;" horiz-adv-x="899" d="M78 -199q0 102 31.5 181t80.5 124q90 86 206 154t124 172l10 178l123 15l11 -99q10 -98 10 -163.5t-32 -110.5t-80 -76t-103.5 -68.5t-103.5 -74.5t-79.5 -97.5t-31.5 -134.5q0 -190 217 -190q102 0 207 43l20 162h131l23 -260q-197 -66 -386.5 -66t-283.5 86t-94 225z M453 873.5q0 72.5 28.5 102.5t106.5 30t98.5 -29t20.5 -103.5t-30 -98t-103.5 -23.5t-97 24.5t-23.5 97z" />
<glyph unicode="&#xc0;" horiz-adv-x="1357" d="M-31 0v121l78 14q41 8 59.5 25.5t36.5 68.5l441 1246h190l438 -1246q18 -51 38 -68.5t61 -25.5l80 -14v-121h-527v117l113 18q53 8 53 49q0 18 -8 41l-90 260h-543l-86 -254q-8 -23 -8 -43q0 -45 55 -53l111 -18v-117h-492zM319 1778l101 137l366 -311q-51 -59 -98 -60 q-23 0 -55 21zM438 629h443l-199 577l-23 92l-22 -92z" />
<glyph unicode="&#xc1;" horiz-adv-x="1357" d="M-31 0v121l78 14q41 8 59.5 25.5t36.5 68.5l441 1246h190l438 -1246q18 -51 38 -68.5t61 -25.5l80 -14v-121h-527v117l113 18q53 8 53 49q0 18 -8 41l-90 260h-543l-86 -254q-8 -23 -8 -43q0 -45 55 -53l111 -18v-117h-492zM438 629h443l-199 577l-23 92l-22 -92z M578 1604l366 311l100 -137l-313 -213q-33 -20 -55 -21q-47 0 -98 60z" />
<glyph unicode="&#xc2;" horiz-adv-x="1357" d="M-31 0v121l78 14q41 8 59.5 25.5t36.5 68.5l441 1246h190l438 -1246q18 -51 38 -68.5t61 -25.5l80 -14v-121h-527v117l113 18q53 8 53 49q0 18 -8 41l-90 260h-543l-86 -254q-8 -23 -8 -43q0 -45 55 -53l111 -18v-117h-492zM367 1593l235 277h154l233 -277l-78 -65 l-233 217l-232 -217zM438 629h443l-199 577l-23 92l-22 -92z" />
<glyph unicode="&#xc3;" horiz-adv-x="1357" d="M-31 0v121l78 14q41 8 59.5 25.5t36.5 68.5l441 1246h190l438 -1246q18 -51 38 -68.5t61 -25.5l80 -14v-121h-527v117l113 18q53 8 53 49q0 18 -8 41l-90 260h-543l-86 -254q-8 -23 -8 -43q0 -45 55 -53l111 -18v-117h-492zM356 1683q84 119 185 119q61 0 151 -35.5 t145.5 -35.5t120.5 55l33 -82q-82 -119 -182 -119q-55 0 -146.5 38t-144.5 38t-131 -64zM438 629h443l-199 577l-23 92l-22 -92z" />
<glyph unicode="&#xc4;" horiz-adv-x="1357" d="M-31 0v121l78 14q41 8 59.5 25.5t36.5 68.5l441 1246h190l438 -1246q18 -51 38 -68.5t61 -25.5l80 -14v-121h-527v117l113 18q53 8 53 49q0 18 -8 41l-90 260h-543l-86 -254q-8 -23 -8 -43q0 -45 55 -53l111 -18v-117h-492zM348 1708q0 61 27.5 90t94.5 29t87.5 -27.5 t20.5 -92.5t-28 -87.5t-91.5 -22.5t-87 25t-23.5 86zM438 629h443l-199 577l-23 92l-22 -92zM768 1708q0 61 27.5 90t94 29t87 -27.5t20.5 -92.5t-27.5 -87.5t-91 -22.5t-87 25t-23.5 86z" />
<glyph unicode="&#xc5;" horiz-adv-x="1357" d="M-31 0v121l78 14q41 8 59.5 25.5t36.5 68.5l441 1246h190l438 -1246q18 -51 38 -68.5t61 -25.5l80 -14v-121h-527v117l113 18q53 8 53 49q0 18 -8 41l-90 260h-543l-86 -254q-8 -23 -8 -43q0 -45 55 -53l111 -18v-117h-492zM438 629h443l-199 577l-23 92l-22 -92z M477 1734.5q0 75.5 55.5 135t145.5 59.5t140 -56t50 -132t-55 -135.5t-145 -59.5t-140.5 56.5t-50.5 132zM580 1729q0 -37 27.5 -62t66.5 -25q92 1 92 103q0 37 -27.5 61.5t-66.5 24.5q-92 0 -92 -102z" />
<glyph unicode="&#xc6;" horiz-adv-x="1902" d="M47 0v121l86 14q41 8 59.5 25.5t36.5 68.5l430 1114q-2 2 -20 7l-109 10v115h1266l-12 -353h-131l-13 144q-2 37 -20 48t-57 11h-437v-559h449v-143h-449v-473h457q39 0 57.5 11t20.5 48l12 153h137l13 -362h-1035v123l109 18q37 6 48 21.5t11 56.5v402h-421l-146 -390 q-10 -27 -10 -43q0 -43 57 -53l111 -18v-117h-500zM588 764h368v479q0 41 -11 60.5t-48 21.5l-96 6z" />
<glyph unicode="&#xc7;" horiz-adv-x="1302" d="M86 721q0 344 167 559t501 215q121 0 222 -21.5t236 -95.5l-32 -334h-148l-43 226q-80 39 -140.5 55t-163.5 16t-167.5 -28.5t-116 -79.5t-84 -210t-32.5 -288q0 -276 116.5 -436t335.5 -160q170 1 426 97l41 -134q-117 -59 -258 -91t-233 -31v-107l55 -18 q66 -20 88.5 -49t22.5 -80q0 -94 -67 -145.5t-155 -51.5t-180 43l25 80q72 -29 147 -29q100 0 101 98q0 31 -22.5 47.5t-70.5 26.5l-75 17l30 172q-526 49 -526 737z" />
<glyph unicode="&#xc8;" horiz-adv-x="1269" d="M119 0v123l108 18q37 6 48.5 21.5t11.5 56.5v1047q0 41 -11.5 59t-48.5 23l-108 12v115h1052l-12 -353h-131l-12 144q-2 37 -20.5 48t-57.5 11h-475v-481h479v-150h-479v-544h477q39 0 57.5 11t20.5 48l12 153h137l13 -362h-1061zM315 1778l101 137l366 -311 q-51 -59 -98 -60q-23 0 -55 21z" />
<glyph unicode="&#xc9;" horiz-adv-x="1269" d="M119 0v123l108 18q37 6 48.5 21.5t11.5 56.5v1047q0 41 -11.5 59t-48.5 23l-108 12v115h1052l-12 -353h-131l-12 144q-2 37 -20.5 48t-57.5 11h-475v-481h479v-150h-479v-544h477q39 0 57.5 11t20.5 48l12 153h137l13 -362h-1061zM547 1604l366 311l101 -137l-314 -213 q-33 -20 -55 -21q-47 0 -98 60z" />
<glyph unicode="&#xca;" horiz-adv-x="1269" d="M119 0v123l108 18q37 6 48.5 21.5t11.5 56.5v1047q0 41 -11.5 59t-48.5 23l-108 12v115h1052l-12 -353h-131l-12 144q-2 37 -20.5 48t-57.5 11h-475v-481h479v-150h-479v-544h477q39 0 57.5 11t20.5 48l12 153h137l13 -362h-1061zM369 1593l235 277h154l233 -277l-78 -65 l-233 217l-231 -217z" />
<glyph unicode="&#xcb;" horiz-adv-x="1269" d="M119 0v123l108 18q37 6 48.5 21.5t11.5 56.5v1047q0 41 -11.5 59t-48.5 23l-108 12v115h1052l-12 -353h-131l-12 144q-2 37 -20.5 48t-57.5 11h-475v-481h479v-150h-479v-544h477q39 0 57.5 11t20.5 48l12 153h137l13 -362h-1061zM369 1708q0 61 27.5 90t94 29t87 -27.5 t20.5 -92.5t-27.5 -87.5t-91 -22.5t-87 25t-23.5 86zM788 1708q0 61 28 90t94.5 29t87 -27.5t20.5 -92.5t-27.5 -87.5t-91 -22.5t-87.5 25t-24 86z" />
<glyph unicode="&#xcc;" horiz-adv-x="749" d="M25 1778l100 137l367 -311q-51 -59 -99 -60q-23 0 -55 21zM119 0v121l108 18q37 6 48.5 21.5t11.5 56.5v1040q0 41 -11.5 56.5t-48.5 21.5l-108 19v121h512v-121l-109 -19q-37 -6 -48 -21.5t-11 -56.5v-1040q0 -41 11 -56.5t48 -21.5l109 -18v-121h-512z" />
<glyph unicode="&#xcd;" horiz-adv-x="749" d="M119 0v121l108 18q37 6 48.5 21.5t11.5 56.5v1040q0 41 -11.5 56.5t-48.5 21.5l-108 19v121h512v-121l-109 -19q-37 -6 -48 -21.5t-11 -56.5v-1040q0 -41 11 -56.5t48 -21.5l109 -18v-121h-512zM258 1604l367 311l100 -137l-313 -213q-33 -20 -56 -21q-47 0 -98 60z" />
<glyph unicode="&#xce;" horiz-adv-x="749" d="M96 1593l205 277h154l202 -277l-77 -65l-203 217l-201 -217zM119 0v121l108 18q37 6 48.5 21.5t11.5 56.5v1040q0 41 -11.5 56.5t-48.5 21.5l-108 19v121h512v-121l-109 -19q-37 -6 -48 -21.5t-11 -56.5v-1040q0 -41 11 -56.5t48 -21.5l109 -18v-121h-512z" />
<glyph unicode="&#xcf;" horiz-adv-x="749" d="M70 1708q0 61 27.5 90t94 29t87 -27.5t20.5 -92.5t-27.5 -87.5t-91 -22.5t-87 25t-23.5 86zM119 0v121l108 18q37 6 48.5 21.5t11.5 56.5v1040q0 41 -11.5 56.5t-48.5 21.5l-108 19v121h512v-121l-109 -19q-37 -6 -48 -21.5t-11 -56.5v-1040q0 -41 11 -56.5t48 -21.5 l109 -18v-121h-512zM449 1708q0 61 27.5 90t94 29t87 -27.5t20.5 -92.5t-27.5 -87.5t-91 -22.5t-87 25t-23.5 86z" />
<glyph unicode="&#xd0;" horiz-adv-x="1470" d="M119 0v123l108 18q37 6 48.5 23.5t11.5 58.5v430h-168v150h168v463q0 41 -11.5 59t-48.5 23l-108 12v115h612q645 0 645 -715q0 -352 -155.5 -556t-489.5 -204h-612zM463 150h237q246 0 362 141t116 463.5t-114 446.5t-364 124h-237v-522h375v-150h-375v-503z" />
<glyph unicode="&#xd1;" horiz-adv-x="1611" d="M119 0v121l108 18q37 6 48.5 21.5t11.5 56.5v1043q0 41 -11.5 59t-48.5 22l-106 13v121h344l735 -1151v936q0 41 -10 59t-47 22l-107 13v121h506v-121l-106 -13q-37 -4 -48.5 -22.5t-11.5 -58.5v-1260h-180l-733 1151v-934q0 -41 11 -56.5t48 -21.5l109 -18v-121h-512z M514 1681q84 119 184 119q61 0 151.5 -35.5t147 -35.5t119.5 55l33 -82q-82 -119 -182 -119q-56 0 -147 38t-144 38t-131 -64z" />
<glyph unicode="&#xd2;" d="M86 698.5q0 190.5 39 322.5t120 240.5t218 171t333.5 62.5t334 -100.5t194.5 -264t57 -354t-38.5 -322.5t-119.5 -241t-218.5 -171t-334 -62t-333.5 100t-194.5 264t-57.5 354.5zM285 725q0 -279 123.5 -436.5t342 -157.5t316.5 113q51 59 84 209.5t33 296.5 q0 278 -124 435.5t-342 157.5t-317 -112q-51 -59 -83.5 -210t-32.5 -296zM408 1778l100 137l366 -311q-51 -59 -98 -60q-23 0 -55 21z" />
<glyph unicode="&#xd3;" d="M86 698.5q0 190.5 39 322.5t120 240.5t218 171t333.5 62.5t334 -100.5t194.5 -264t57 -354t-38.5 -322.5t-119.5 -241t-218.5 -171t-334 -62t-333.5 100t-194.5 264t-57.5 354.5zM285 725q0 -279 123.5 -436.5t342 -157.5t316.5 113q51 59 84 209.5t33 296.5 q0 278 -124 435.5t-342 157.5t-317 -112q-51 -59 -83.5 -210t-32.5 -296zM662 1604l366 311l100 -137l-313 -213q-33 -20 -55 -21q-47 0 -98 60z" />
<glyph unicode="&#xd4;" d="M86 698.5q0 190.5 39 322.5t120 240.5t218 171t333.5 62.5t334 -100.5t194.5 -264t57 -354t-38.5 -322.5t-119.5 -241t-218.5 -171t-334 -62t-333.5 100t-194.5 264t-57.5 354.5zM285 725q0 -279 123.5 -436.5t342 -157.5t316.5 113q51 59 84 209.5t33 296.5 q0 278 -124 435.5t-342 157.5t-317 -112q-51 -59 -83.5 -210t-32.5 -296zM426 1593l236 277h153l234 -277l-78 -65l-234 217l-231 -217z" />
<glyph unicode="&#xd5;" d="M86 698.5q0 190.5 39 322.5t120 240.5t218 171t333.5 62.5t334 -100.5t194.5 -264t57 -354t-38.5 -322.5t-119.5 -241t-218.5 -171t-334 -62t-333.5 100t-194.5 264t-57.5 354.5zM285 725q0 -279 123.5 -436.5t342 -157.5t316.5 113q51 59 84 209.5t33 296.5 q0 278 -124 435.5t-342 157.5t-317 -112q-51 -59 -83.5 -210t-32.5 -296zM418 1683q84 119 184 119q61 0 151.5 -35.5t145.5 -35.5t121 55l33 -82q-82 -119 -183 -119q-55 0 -146 38t-144.5 38t-130.5 -64z" />
<glyph unicode="&#xd6;" d="M86 698.5q0 190.5 39 322.5t120 240.5t218 171t333.5 62.5t334 -100.5t194.5 -264t57 -354t-38.5 -322.5t-119.5 -241t-218.5 -171t-334 -62t-333.5 100t-194.5 264t-57.5 354.5zM285 725q0 -279 123.5 -436.5t342 -157.5t316.5 113q51 59 84 209.5t33 296.5 q0 278 -124 435.5t-342 157.5t-317 -112q-51 -59 -83.5 -210t-32.5 -296zM410 1708q0 61 27.5 90t94 29t87 -27.5t20.5 -92.5t-27.5 -87.5t-91 -22.5t-87 25t-23.5 86zM829 1708q0 61 28 90t94.5 29t87 -27.5t20.5 -92.5t-27.5 -87.5t-91 -22.5t-87.5 25t-24 86z" />
<glyph unicode="&#xd7;" horiz-adv-x="978" d="M88 180l305 299l-303 309l94 95l303 -310l310 304l94 -93l-307 -307l297 -303l-93 -94l-299 303l-309 -309z" />
<glyph unicode="&#xd8;" d="M86 737q0 311 160 525q80 109 217 171t287.5 62t242.5 -31l54 113l112 -53l-53 -113q276 -170 276 -674q0 -311 -157 -524q-82 -109 -219.5 -171t-289 -62t-261.5 36l-58 -125l-112 54l59 129q-258 176 -258 663zM285 725q0 -311 147 -465l486 1040q-92 43 -209 43 q-209 0 -308 -112q-51 -59 -83.5 -210t-32.5 -296zM532 182q98 -51 228 -51q209 0 307 113q51 59 84 210t33 296q0 324 -162 479z" />
<glyph unicode="&#xd9;" horiz-adv-x="1476" d="M57 1354v121h512v-121l-108 -19q-37 -6 -48.5 -21.5t-11.5 -56.5v-749q0 -365 381 -365q147 0 226 74t79 307v733q0 41 -11 56.5t-48 21.5l-108 19v121h503v-121l-108 -19q-37 -6 -48.5 -21.5t-11.5 -56.5v-782q0 -172 -84 -287q-147 -209 -452 -208q-244 0 -369 128 t-125 367v782q0 41 -11 56.5t-48 21.5zM381 1778l100 137l367 -311q-51 -59 -98 -60q-23 0 -56 21z" />
<glyph unicode="&#xda;" horiz-adv-x="1476" d="M57 1354v121h512v-121l-108 -19q-37 -6 -48.5 -21.5t-11.5 -56.5v-749q0 -365 381 -365q147 0 226 74t79 307v733q0 41 -11 56.5t-48 21.5l-108 19v121h503v-121l-108 -19q-37 -6 -48.5 -21.5t-11.5 -56.5v-782q0 -172 -84 -287q-147 -209 -452 -208q-244 0 -369 128 t-125 367v782q0 41 -11 56.5t-48 21.5zM653 1604l367 311l100 -137l-313 -213q-33 -20 -55 -21q-47 0 -99 60z" />
<glyph unicode="&#xdb;" horiz-adv-x="1476" d="M57 1354v121h512v-121l-108 -19q-37 -6 -48.5 -21.5t-11.5 -56.5v-749q0 -365 381 -365q147 0 226 74t79 307v733q0 41 -11 56.5t-48 21.5l-108 19v121h503v-121l-108 -19q-37 -6 -48.5 -21.5t-11.5 -56.5v-782q0 -172 -84 -287q-147 -209 -452 -208q-244 0 -369 128 t-125 367v782q0 41 -11 56.5t-48 21.5zM434 1593l236 277h153l234 -277l-78 -65l-234 217l-231 -217z" />
<glyph unicode="&#xdc;" horiz-adv-x="1478" d="M57 1354v121h512v-121l-108 -19q-37 -6 -48.5 -21.5t-11.5 -56.5v-749q0 -365 381 -365q147 0 226 74t79 307v733q0 41 -11 56.5t-48 21.5l-108 19v121h503v-121l-108 -19q-37 -6 -48.5 -21.5t-11.5 -56.5v-782q0 -172 -84 -287q-147 -209 -452 -208q-244 0 -369 128 t-125 367v782q0 41 -11 56.5t-48 21.5zM416 1708q0 61 27.5 90t94 29t87 -27.5t20.5 -92.5t-27.5 -87.5t-91 -22.5t-87 25t-23.5 86zM836 1708q0 61 27.5 90t94 29t87 -27.5t20.5 -92.5t-27.5 -87.5t-91 -22.5t-87 25t-23.5 86z" />
<glyph unicode="&#xdd;" horiz-adv-x="1372" d="M-8 1354v121h551v-119l-103 -13q-66 -10 -65 -38q0 -14 16 -48l322 -579l307 579q14 27 14 43q0 31 -71 41l-103 13v121h508v-121l-78 -11q-41 -6 -58.5 -21t-43.5 -65l-414 -733v-307q0 -41 11.5 -56.5t48.5 -21.5l116 -18v-121h-528v121l117 18q37 6 48 21.5t11 56.5 v303l-405 737q-27 45 -51.5 62.5t-71.5 23.5zM604 1604l367 311l100 -137l-313 -213q-33 -20 -56 -21q-47 0 -98 60z" />
<glyph unicode="&#xde;" horiz-adv-x="1155" d="M115 0v121l112 18q37 6 48.5 21.5t11.5 56.5v1040q0 41 -11.5 56.5t-48.5 21.5l-112 19v121h512v-121l-109 -19q-37 -6 -48 -21.5t-11 -56.5v-40h198q217 0 334 -80t117 -292t-148.5 -346t-345.5 -134h-155v-148q0 -41 11 -56.5t48 -21.5l109 -18v-121h-512zM459 494h149 q150 0 213 49q96 76 97 301q0 248 -279 248h-180v-598z" />
<glyph unicode="&#xdf;" horiz-adv-x="1224" d="M74 856l20 109l148 18h4v143q0 244 115.5 368t326.5 124q160 0 256 -83t96 -253q0 -88 -26.5 -154.5t-67.5 -101.5q-88 -75 -178 -120.5t-90 -121.5t23.5 -96t28.5 -28q6 -9 54 -31t153 -68.5t167.5 -102t62.5 -161.5q0 -141 -100 -224t-252.5 -83t-304.5 71l12 248h115 l16 -149q90 -43 160 -43q193 0 193 149q0 59 -53.5 100.5t-180.5 88.5t-187.5 113.5t-60.5 164.5t36 149.5t86 78t101.5 55t87 91t35.5 161.5q0 207 -239 207q-137 0 -187 -66q-37 -49 -36 -168v-1241h-326v111l117 12q31 2 39 17.5t8 60.5v655h-172z" />
<glyph unicode="&#xe0;" horiz-adv-x="1075" d="M72 245q0 120 71.5 195.5t206.5 94.5l332 45v137q0 164 -221 164q-94 0 -180 -39l-29 -150h-119l-14 236q211 76 360.5 76t257 -70t107.5 -213v-520q0 -45 8 -60.5t39 -17.5l115 -12v-111h-299l-17 160q-170 -180 -360 -180q-117 0 -187.5 72.5t-70.5 192.5zM150 1417 l118 123l320 -360q-53 -45 -90 -45t-68 28zM242 260.5q0 -65.5 42 -100.5t107 -35q111 0 291 162v182l-285 -47q-74 -10 -114.5 -53t-40.5 -108.5z" />
<glyph unicode="&#xe1;" horiz-adv-x="1075" d="M72 245q0 120 71.5 195.5t206.5 94.5l332 45v137q0 164 -221 164q-94 0 -180 -39l-29 -150h-119l-14 236q211 76 360.5 76t257 -70t107.5 -213v-520q0 -45 8 -60.5t39 -17.5l115 -12v-111h-299l-17 160q-170 -180 -360 -180q-117 0 -187.5 72.5t-70.5 192.5zM242 260.5 q0 -65.5 42 -100.5t107 -35q111 0 291 162v182l-285 -47q-74 -10 -114.5 -53t-40.5 -108.5zM387 1180l320 360l118 -123l-280 -254q-66 -61 -158 17z" />
<glyph unicode="&#xe2;" horiz-adv-x="1075" d="M72 245q0 120 71.5 195.5t206.5 94.5l332 45v137q0 164 -221 164q-94 0 -180 -39l-29 -150h-119l-14 236q211 76 360.5 76t257 -70t107.5 -213v-520q0 -45 8 -60.5t39 -17.5l115 -12v-111h-299l-17 160q-170 -180 -360 -180q-117 0 -187.5 72.5t-70.5 192.5zM184 1184 l226 307h153l221 -307l-77 -66l-222 248l-221 -248zM242 260.5q0 -65.5 42 -100.5t107 -35q111 0 291 162v182l-285 -47q-74 -10 -114.5 -53t-40.5 -108.5z" />
<glyph unicode="&#xe3;" horiz-adv-x="1075" d="M72 245q0 120 71.5 195.5t206.5 94.5l332 45v137q0 164 -221 164q-94 0 -180 -39l-29 -150h-119l-14 236q211 76 360.5 76t257 -70t107.5 -213v-520q0 -45 8 -60.5t39 -17.5l115 -12v-111h-299l-17 160q-170 -180 -360 -180q-117 0 -187.5 72.5t-70.5 192.5zM133 1274 q84 119 184 119q61 0 151.5 -36t147 -36t119.5 55l33 -82q-82 -119 -182 -118q-56 0 -147 37.5t-144 37.5t-131 -63zM242 260.5q0 -65.5 42 -100.5t107 -35q111 0 291 162v182l-285 -47q-74 -10 -114.5 -53t-40.5 -108.5z" />
<glyph unicode="&#xe4;" horiz-adv-x="1075" d="M72 245q0 120 71.5 195.5t206.5 94.5l332 45v137q0 164 -221 164q-94 0 -180 -39l-29 -150h-119l-14 236q211 76 360.5 76t257 -70t107.5 -213v-520q0 -45 8 -60.5t39 -17.5l115 -12v-111h-299l-17 160q-170 -180 -360 -180q-117 0 -187.5 72.5t-70.5 192.5zM156 1298.5 q0 61.5 27.5 90t94 28.5t87 -27.5t20.5 -92t-27.5 -87t-91 -22.5t-87 24.5t-23.5 86zM242 260.5q0 -65.5 42 -100.5t107 -35q111 0 291 162v182l-285 -47q-74 -10 -114.5 -53t-40.5 -108.5zM575 1298.5q0 61.5 28 90t94.5 28.5t87 -27.5t20.5 -92t-27.5 -87t-91 -22.5 t-87.5 24.5t-24 86z" />
<glyph unicode="&#xe5;" horiz-adv-x="1075" d="M72 245q0 120 71.5 195.5t206.5 94.5l332 45v137q0 164 -221 164q-94 0 -180 -39l-29 -150h-119l-14 236q211 76 360.5 76t257 -70t107.5 -213v-520q0 -45 8 -60.5t39 -17.5l115 -12v-111h-299l-17 160q-170 -180 -360 -180q-117 0 -187.5 72.5t-70.5 192.5zM242 260.5 q0 -65.5 42 -100.5t107 -35q111 0 291 162v182l-285 -47q-74 -10 -114.5 -53t-40.5 -108.5zM260 1325q0 76 55.5 135.5t145.5 59.5t140 -56.5t50 -132.5t-55 -135t-145.5 -59t-140.5 56t-50 132zM362 1319q0 -37 28 -61.5t67 -24.5q92 0 92 102q0 37 -27.5 61.5t-66.5 24.5 q-92 0 -93 -102z" />
<glyph unicode="&#xe6;" horiz-adv-x="1572" d="M72 241.5q0 116.5 63.5 188.5t159.5 91.5t240.5 39t146.5 19.5v137q0 164 -221 164q-94 0 -180 -39l-29 -150h-119l-14 236q211 76 348 76q233 0 326 -134q115 133 327.5 133.5t292.5 -125.5t80 -382l-655 -47q4 -334 297 -334q143 0 321 59l29 -100q-59 -31 -173 -63 t-235 -31q-260 0 -352 176q-51 -49 -96 -82t-127 -63.5t-185.5 -30.5t-174 72.5t-70.5 189zM242 258q0 -61 41 -97t110.5 -36t154.5 42t134 95v203l-307 -51q-133 -27 -133 -156zM836 571l495 43q0 115 -47 184.5t-178 69.5q-86 0 -133 -11t-77 -50t-40 -88.5t-20 -147.5z " />
<glyph unicode="&#xe7;" horiz-adv-x="972" d="M82 463q0 240 127 390.5t340 150.5q94 0 182 -24t133 -52l-14 -252h-119l-29 153q-70 39 -204 39q-49 0 -100.5 -18.5t-69.5 -48.5q-70 -98 -70 -328q0 -160 75 -259t212 -99q100 0 321 55l25 -104q-113 -57 -273 -80q-41 -6 -81 -6v-107l55 -18q66 -20 88 -49t22 -80 q0 -94 -66.5 -145.5t-154.5 -51.5t-180 43l25 80q72 -29 147 -29q100 0 100 98q0 31 -22.5 47.5t-69.5 26.5l-75 17l30 174q-354 43 -354 477z" />
<glyph unicode="&#xe8;" horiz-adv-x="991" d="M74 480.5q0 232.5 120.5 378t339 145.5t298 -126t79.5 -382l-659 -47q10 -334 301 -334q143 0 321 59l29 -100q-59 -31 -172.5 -63t-234.5 -31q-215 0 -318.5 134t-103.5 366.5zM158 1417l118 123l320 -360q-53 -45 -90 -45t-68 28zM250 571l500 43q0 115 -47.5 184.5 t-194 69.5t-192.5 -55.5t-66 -241.5z" />
<glyph unicode="&#xe9;" horiz-adv-x="991" d="M74 480.5q0 232.5 120.5 378t339 145.5t298 -126t79.5 -382l-659 -47q10 -334 301 -334q143 0 321 59l29 -100q-59 -31 -172.5 -63t-234.5 -31q-215 0 -318.5 134t-103.5 366.5zM250 571l500 43q0 115 -47.5 184.5t-194 69.5t-192.5 -55.5t-66 -241.5zM408 1180l319 360 l119 -123l-281 -254q-31 -29 -67.5 -28.5t-89.5 45.5z" />
<glyph unicode="&#xea;" horiz-adv-x="991" d="M74 480.5q0 232.5 120.5 378t339 145.5t298 -126t79.5 -382l-659 -47q10 -334 301 -334q143 0 321 59l29 -100q-59 -31 -172.5 -63t-234.5 -31q-215 0 -318.5 134t-103.5 366.5zM193 1184l225 307h153l222 -307l-78 -66l-221 248l-222 -248zM250 571l500 43 q0 115 -47.5 184.5t-194 69.5t-192.5 -55.5t-66 -241.5z" />
<glyph unicode="&#xeb;" horiz-adv-x="991" d="M74 480.5q0 232.5 120.5 378t339 145.5t298 -126t79.5 -382l-659 -47q10 -334 301 -334q143 0 321 59l29 -100q-59 -31 -172.5 -63t-234.5 -31q-215 0 -318.5 134t-103.5 366.5zM164 1298.5q0 61.5 27.5 90t94 28.5t87 -27.5t20.5 -92t-27.5 -87t-91 -22.5t-87 24.5 t-23.5 86zM250 571l500 43q0 115 -47.5 184.5t-194 69.5t-192.5 -55.5t-66 -241.5zM584 1298.5q0 61.5 27.5 90t94 28.5t87 -27.5t20.5 -92t-27.5 -87t-91 -22.5t-87 24.5t-23.5 86z" />
<glyph unicode="&#xec;" horiz-adv-x="632" d="M-27 1417l119 123l320 -360q-53 -45 -90 -45t-68 28zM86 0v111l113 12q31 4 39 18.5t8 59.5v585q0 45 -8.5 60.5t-38.5 17.5l-113 13v106h322v-782q0 -45 8 -59.5t39 -18.5l112 -12v-111h-481z" />
<glyph unicode="&#xed;" horiz-adv-x="632" d="M86 0v111l113 12q31 4 39 18.5t8 59.5v585q0 45 -8.5 60.5t-38.5 17.5l-113 13v106h322v-782q0 -45 8 -59.5t39 -18.5l112 -12v-111h-481zM162 1180l319 360l119 -123l-281 -254q-31 -29 -67.5 -28.5t-89.5 45.5z" />
<glyph unicode="&#xee;" horiz-adv-x="632" d="M-6 1184l207 307h135l201 -307l-78 -66l-193 240l-192 -240zM86 0v111l113 12q31 4 39 18.5t8 59.5v585q0 45 -8.5 60.5t-38.5 17.5l-113 13v106h322v-782q0 -45 8 -59.5t39 -18.5l112 -12v-111h-481z" />
<glyph unicode="&#xef;" horiz-adv-x="632" d="M-16 1298.5q0 61.5 27.5 90t94 28.5t87 -27.5t20.5 -92t-27.5 -87t-91 -22.5t-87 24.5t-23.5 86zM86 0v111l113 12q31 4 39 18.5t8 59.5v585q0 45 -8.5 60.5t-38.5 17.5l-113 13v106h322v-782q0 -45 8 -59.5t39 -18.5l112 -12v-111h-481zM322 1298.5q0 61.5 27.5 90 t94 28.5t87 -27.5t20.5 -92t-27.5 -87t-91 -22.5t-87 24.5t-23.5 86z" />
<glyph unicode="&#xf0;" horiz-adv-x="1058" d="M51 492q0 195 131 353.5t348 158.5q63 0 126 -25t83 -55q-59 223 -241 403l-224 -139l-61 94l197 123q-90 70 -164 113l67 104q119 -59 224 -139l192 121l59 -93l-165 -104q333 -320 333 -832q0 -266 -124.5 -430.5t-378.5 -164.5q-205 0 -303.5 138t-98.5 374zM227 483 q0 -174 71 -271t207 -97t195 63q80 86 80 307.5t-55.5 302t-235.5 80.5q-115 0 -184 -65q-37 -35 -57.5 -131.5t-20.5 -188.5z" />
<glyph unicode="&#xf1;" horiz-adv-x="1284" d="M86 0v111l113 12q31 2 39 17.5t8 60.5v585q0 45 -8.5 60.5t-38.5 17.5l-113 13v106h301l19 -147q47 49 77.5 75.5t105.5 59.5t159 33q164 0 237.5 -84t73.5 -209v-510q0 -45 8 -59.5t39 -18.5l113 -12v-111h-322v662q0 92 -57.5 141t-153.5 49t-170 -47t-108 -109v-495 q0 -45 8 -60.5t39 -17.5l123 -14v-109h-492zM330 1294q84 119 184 119q61 0 151.5 -36t146.5 -36t120 56l33 -82q-82 -119 -183 -119q-55 0 -146 38t-144.5 38t-131.5 -64z" />
<glyph unicode="&#xf2;" horiz-adv-x="1112" d="M82 469.5q0 215.5 115 366.5q57 76 158.5 122t234.5 46q227 0 333.5 -137.5t106.5 -352.5t-115 -367q-57 -76 -158.5 -121.5t-234.5 -45.5q-227 0 -333.5 137t-106.5 352.5zM223 1417l119 123l320 -360q-53 -45 -90 -45t-68 28zM258 483q0 -172 82 -270t226.5 -98 t194.5 50t71.5 145.5t21.5 189.5q0 172 -82 270t-226.5 98t-194.5 -50t-71.5 -145t-21.5 -190z" />
<glyph unicode="&#xf3;" horiz-adv-x="1112" d="M82 469.5q0 215.5 115 366.5q57 76 158.5 122t234.5 46q227 0 333.5 -137.5t106.5 -352.5t-115 -367q-57 -76 -158.5 -121.5t-234.5 -45.5q-227 0 -333.5 137t-106.5 352.5zM258 483q0 -172 82 -270t226.5 -98t194.5 50t71.5 145.5t21.5 189.5q0 172 -82 270t-226.5 98 t-194.5 -50t-71.5 -145t-21.5 -190zM473 1180l320 360l118 -123l-280 -254q-66 -61 -158 17z" />
<glyph unicode="&#xf4;" horiz-adv-x="1112" d="M82 469.5q0 215.5 115 366.5q57 76 158.5 122t234.5 46q227 0 333.5 -137.5t106.5 -352.5t-115 -367q-57 -76 -158.5 -121.5t-234.5 -45.5q-227 0 -333.5 137t-106.5 352.5zM258 483q0 -172 82 -270t226.5 -98t194.5 50t71.5 145.5t21.5 189.5q0 172 -82 270t-226.5 98 t-194.5 -50t-71.5 -145t-21.5 -190zM258 1184l225 307h154l221 -307l-78 -66l-221 248l-221 -248z" />
<glyph unicode="&#xf5;" horiz-adv-x="1112" d="M82 469.5q0 215.5 115 366.5q57 76 158.5 122t234.5 46q227 0 333.5 -137.5t106.5 -352.5t-115 -367q-57 -76 -158.5 -121.5t-234.5 -45.5q-227 0 -333.5 137t-106.5 352.5zM238 1274q84 119 184 119q61 0 151.5 -36t145.5 -36t121 55l32 -82q-82 -119 -182 -118 q-55 0 -146 37.5t-144.5 37.5t-131.5 -63zM258 483q0 -172 82 -270t226.5 -98t194.5 50t71.5 145.5t21.5 189.5q0 172 -82 270t-226.5 98t-194.5 -50t-71.5 -145t-21.5 -190z" />
<glyph unicode="&#xf6;" horiz-adv-x="1112" d="M82 469.5q0 215.5 115 366.5q57 76 158.5 122t234.5 46q227 0 333.5 -137.5t106.5 -352.5t-115 -367q-57 -76 -158.5 -121.5t-234.5 -45.5q-227 0 -333.5 137t-106.5 352.5zM229 1298.5q0 61.5 28 90t94.5 28.5t87 -27.5t20.5 -92t-28 -87t-91.5 -22.5t-87 24.5t-23.5 86 zM258 483q0 -172 82 -270t226.5 -98t194.5 50t71.5 145.5t21.5 189.5q0 172 -82 270t-226.5 98t-194.5 -50t-71.5 -145t-21.5 -190zM649 1298.5q0 61.5 28 90t94.5 28.5t87 -27.5t20.5 -92t-28 -87t-91.5 -22.5t-87 24.5t-23.5 86z" />
<glyph unicode="&#xf7;" horiz-adv-x="1056" d="M82 416v133h893v-133h-893zM406 115q0 68 27.5 98.5t97 30.5t89 -28t19.5 -94.5t-29.5 -89t-101.5 -22.5q-102 0 -102 105zM406 846q0 68 27.5 98.5t97 30.5t89 -27.5t19.5 -94.5t-29.5 -89.5t-101.5 -22.5q-102 0 -102 105z" />
<glyph unicode="&#xf8;" horiz-adv-x="1112" d="M82 492q0 193 115 344q57 76 158.5 122t234.5 46q51 0 108 -11l45 97l103 -48l-39 -84q223 -111 223 -466q0 -193 -115 -345q-57 -76 -158.5 -121.5t-212 -45.5t-184.5 22l-53 -113l-102 48l53 114q-176 125 -176 441zM258 483q0 -170 78 -266l299 639q-45 12 -96 12 q-137 0 -187.5 -50t-72 -145t-21.5 -190zM426 145q66 -31 147 -30q137 0 187.5 50t72 145.5t21.5 189.5q0 211 -119 305z" />
<glyph unicode="&#xf9;" horiz-adv-x="1241" d="M55 877v106h322v-655q0 -197 201 -197q94 0 173.5 56.5t102.5 97.5v501q0 45 -8 60.5t-39 17.5l-113 13v106h322v-782q0 -45 8 -60.5t39 -17.5l115 -12v-111h-295l-17 156q-150 -176 -336 -176q-152 0 -233.5 75.5t-81.5 216.5v514q0 45 -8 60.5t-39 17.5zM221 1417 l119 123l319 -360q-53 -45 -90 -45t-67 28z" />
<glyph unicode="&#xfa;" horiz-adv-x="1241" d="M55 877v106h322v-655q0 -197 201 -197q94 0 173.5 56.5t102.5 97.5v501q0 45 -8 60.5t-39 17.5l-113 13v106h322v-782q0 -45 8 -60.5t39 -17.5l115 -12v-111h-295l-17 156q-150 -176 -336 -176q-152 0 -233.5 75.5t-81.5 216.5v514q0 45 -8 60.5t-39 17.5zM471 1180 l320 360l118 -123l-280 -254q-66 -61 -158 17z" />
<glyph unicode="&#xfb;" horiz-adv-x="1241" d="M55 877v106h322v-655q0 -197 201 -197q94 0 173.5 56.5t102.5 97.5v501q0 45 -8 60.5t-39 17.5l-113 13v106h322v-782q0 -45 8 -60.5t39 -17.5l115 -12v-111h-295l-17 156q-150 -176 -336 -176q-152 0 -233.5 75.5t-81.5 216.5v514q0 45 -8 60.5t-39 17.5zM297 1184 l225 307h154l221 -307l-78 -66l-221 248l-221 -248z" />
<glyph unicode="&#xfc;" horiz-adv-x="1241" d="M55 877v106h322v-655q0 -197 201 -197q94 0 173.5 56.5t102.5 97.5v501q0 45 -8 60.5t-39 17.5l-113 13v106h322v-782q0 -45 8 -60.5t39 -17.5l115 -12v-111h-295l-17 156q-150 -176 -336 -176q-152 0 -233.5 75.5t-81.5 216.5v514q0 45 -8 60.5t-39 17.5zM268 1298.5 q0 61.5 28 90t94.5 28.5t87 -27.5t20.5 -92t-28 -87t-91.5 -22.5t-87 24.5t-23.5 86zM688 1298.5q0 61.5 27.5 90t94.5 28.5t87.5 -27.5t20.5 -92t-28 -87t-91.5 -22.5t-87 24.5t-23.5 86z" />
<glyph unicode="&#xfd;" horiz-adv-x="1071" d="M-29 877v106h475v-104l-104 -13q-47 -6 -47 -35q0 -14 12 -45l236 -630l229 630q10 31 10 43q0 31 -49 37l-104 13v104h448v-106l-90 -13q-39 -4 -54 -41t-413 -1089q-88 -246 -305 -246q-115 0 -184 25l-21 120q104 -16 148 -16q80 0 144.5 54.5t100.5 154.5l48 129 l-320 831q-8 16 -10 24.5t-5 16t-5 10.5t-7 8q-6 7 -18 11q-10 8 -25 8zM442 1180l320 360l119 -123l-281 -254q-31 -29 -67.5 -28.5t-90.5 45.5z" />
<glyph unicode="&#xfe;" horiz-adv-x="1165" d="M61 -381l117 12q31 2 39 17.5t8 60.5v1692q0 43 -10 59.5t-41 18.5l-113 12v106h326v-741q121 147 312.5 147.5t288.5 -134t97 -362.5t-141 -377.5t-354 -149.5q-123 0 -203 43v-314q0 -45 8 -60.5t39 -17.5l150 -14v-109h-523v111zM387 193q92 -78 232.5 -78t205.5 63 q39 43 61.5 133t22.5 195q0 176 -71.5 269t-204.5 93q-74 0 -150 -51t-96 -90v-534z" />
<glyph unicode="&#xff;" horiz-adv-x="1071" d="M-29 877v106h475v-104l-104 -13q-47 -6 -47 -35q0 -14 12 -45l236 -630l229 630q10 31 10 43q0 31 -49 37l-104 13v104h448v-106l-90 -13q-39 -4 -54 -41t-413 -1089q-88 -246 -305 -246q-115 0 -184 25l-21 120q104 -16 148 -16q80 0 144.5 54.5t100.5 154.5l48 129 l-320 831q-8 16 -10 24.5t-5 16t-5 10.5t-7 8q-6 7 -18 11q-10 8 -25 8zM207 1298.5q0 61.5 27.5 90t94 28.5t87 -27.5t20.5 -92t-27.5 -87t-91 -22.5t-87 24.5t-23.5 86zM627 1298.5q0 61.5 27.5 90t94 28.5t87 -27.5t20.5 -92t-27.5 -87t-91 -22.5t-87 24.5t-23.5 86z" />
<glyph unicode="&#x152;" horiz-adv-x="2078" d="M86 699.5q0 191.5 38 321.5t116.5 239.5t218 172t325.5 62.5q238 0 367 -168v148h850l-12 -353h-131l-13 144q-2 37 -20.5 48t-57.5 11h-444v-502h428v-149h-428v-524h455q39 0 57 11t20 48l13 153h137l12 -362h-864v186q-158 -207 -467 -206q-211 0 -348 100t-194.5 264 t-57.5 355.5zM285 725q0 -279 123.5 -436.5t351.5 -157.5q182 0 295 129q84 145 84 520q0 281 -101.5 422t-349.5 141q-188 0 -287 -112q-51 -59 -83.5 -210t-32.5 -296z" />
<glyph unicode="&#x153;" horiz-adv-x="1748" d="M82 469.5q0 215.5 115 366.5q57 76 158.5 122t234.5 46q246 0 344 -168q121 168 348 168t307 -126t80 -382l-659 -47q10 -334 301 -334q143 0 321 59l29 -100q-59 -31 -172.5 -63t-235.5 -31q-236 0 -344 170q-129 -170 -371.5 -170t-349 137t-106.5 352.5zM258 483 q0 -172 82 -270t226.5 -98t194.5 50t71.5 145.5t21.5 189.5q0 172 -82 270t-226.5 98t-194.5 -50t-71.5 -145t-21.5 -190zM1008 571l499 43q0 115 -47 184.5t-193.5 69.5t-192.5 -55.5t-66 -241.5z" />
<glyph unicode="&#x178;" horiz-adv-x="1372" d="M-8 1354v121h551v-119l-103 -13q-66 -10 -65 -38q0 -14 16 -48l322 -579l307 579q14 27 14 43q0 31 -71 41l-103 13v121h508v-121l-78 -11q-41 -6 -58.5 -21t-43.5 -65l-414 -733v-307q0 -41 11.5 -56.5t48.5 -21.5l116 -18v-121h-528v121l117 18q37 6 48 21.5t11 56.5 v303l-405 737q-27 45 -51.5 62.5t-71.5 23.5zM369 1708q0 61 27.5 90t94 29t87 -27.5t20.5 -92.5t-27.5 -87.5t-91 -22.5t-87 25t-23.5 86zM788 1708q0 61 28 90t94.5 29t87 -27.5t20.5 -92.5t-27.5 -87.5t-91 -22.5t-87.5 25t-24 86z" />
<glyph unicode="&#x2c6;" horiz-adv-x="722" d="M61 1204l226 307h153l222 -307l-78 -65l-222 247l-221 -247z" />
<glyph unicode="&#x2dc;" horiz-adv-x="827" d="M96 1294q84 119 185 119q61 0 151 -36t146.5 -36t119.5 56l33 -82q-82 -119 -182 -119q-55 0 -146.5 38t-144.5 38t-131 -64z" />
<glyph unicode="&#x2000;" horiz-adv-x="964" />
<glyph unicode="&#x2001;" horiz-adv-x="1929" />
<glyph unicode="&#x2002;" horiz-adv-x="964" />
<glyph unicode="&#x2003;" horiz-adv-x="1929" />
<glyph unicode="&#x2004;" horiz-adv-x="643" />
<glyph unicode="&#x2005;" horiz-adv-x="482" />
<glyph unicode="&#x2006;" horiz-adv-x="321" />
<glyph unicode="&#x2007;" horiz-adv-x="321" />
<glyph unicode="&#x2008;" horiz-adv-x="241" />
<glyph unicode="&#x2009;" horiz-adv-x="385" />
<glyph unicode="&#x200a;" horiz-adv-x="107" />
<glyph unicode="&#x2010;" horiz-adv-x="811" d="M123 438v154h565v-154h-565z" />
<glyph unicode="&#x2011;" horiz-adv-x="811" d="M123 438v154h565v-154h-565z" />
<glyph unicode="&#x2012;" horiz-adv-x="811" d="M123 438v154h565v-154h-565z" />
<glyph unicode="&#x2013;" horiz-adv-x="917" d="M0 453v131h918v-131h-918z" />
<glyph unicode="&#x2014;" horiz-adv-x="1835" d="M0 453v131h1835v-131h-1835z" />
<glyph unicode="&#x2018;" horiz-adv-x="471" d="M100 1262q0 115 71 213t159 143l65 -70q-57 -35 -108 -94t-51 -117q70 -8 101.5 -38.5t31.5 -92.5q0 -123 -127 -123q-142 1 -142 179z" />
<glyph unicode="&#x2019;" horiz-adv-x="468" d="M76 1153q57 35 108.5 94.5t51.5 116.5q-70 8 -102 39t-32 92q0 123 127 123q142 0 142 -178q0 -115 -71 -213.5t-159 -143.5z" />
<glyph unicode="&#x201a;" horiz-adv-x="460" d="M82 -213q147 92 147 190q-70 8 -98.5 38t-28.5 94q0 123 121 122q137 0 137 -178q0 -111 -62 -197.5t-151 -131.5z" />
<glyph unicode="&#x201c;" horiz-adv-x="860" d="M100 1262q0 115 71 213t159 143l65 -70q-57 -35 -108 -94t-51 -117q70 -8 101.5 -38.5t31.5 -92.5q0 -123 -127 -123q-142 1 -142 179zM489 1262q0 115 71 213t159 143l65 -70q-57 -35 -108 -94t-51 -117q70 -8 101.5 -38.5t31.5 -92.5q0 -123 -127 -123q-142 1 -142 179 z" />
<glyph unicode="&#x201d;" horiz-adv-x="858" d="M76 1153q57 35 108.5 94.5t51.5 116.5q-70 8 -102 39t-32 92q0 123 127 123q142 0 142 -178q0 -115 -71 -213.5t-159 -143.5zM465 1153q57 35 108.5 94.5t51.5 116.5q-70 8 -101.5 39t-31.5 92q0 123 126 123q142 0 142 -178q0 -115 -71 -213.5t-159 -143.5z" />
<glyph unicode="&#x201e;" horiz-adv-x="851" d="M82 -213q147 92 147 190q-70 8 -98.5 38t-28.5 94q0 123 121 122q137 0 137 -178q0 -111 -62 -197.5t-151 -131.5zM473 -213q147 92 148 190q-70 8 -98.5 38t-28.5 94q0 123 120 122q138 0 138 -178q0 -111 -62.5 -197.5t-150.5 -131.5z" />
<glyph unicode="&#x2022;" horiz-adv-x="782" d="M168 694q0 133 52 191.5t184.5 58.5t171 -56.5t38.5 -180t-56 -166.5t-198 -43q-193 0 -192 196z" />
<glyph unicode="&#x2026;" horiz-adv-x="1433" d="M102 118.5q0 71.5 32 106.5t114 35t104.5 -33.5t22.5 -109.5t-33 -102.5t-107.5 -26.5t-103.5 29.5t-29 101zM582 118.5q0 71.5 31.5 106.5t113.5 35t104.5 -33.5t22.5 -109.5t-33 -102.5t-107.5 -26.5t-103 29.5t-28.5 101zM1059 118.5q0 71.5 31.5 106.5t113.5 35 t104.5 -33.5t22.5 -109.5t-32.5 -102.5t-107.5 -26.5t-103.5 29.5t-28.5 101z" />
<glyph unicode="&#x202f;" horiz-adv-x="385" />
<glyph unicode="&#x2039;" horiz-adv-x="638" d="M115 485l305 396q8 -8 20.5 -21.5t26.5 -27.5t14 -39t-16 -56l-158 -252l158 -252q16 -31 16 -49t-7 -32.5t-12 -20.5t-22.5 -22.5t-19.5 -18.5z" />
<glyph unicode="&#x203a;" horiz-adv-x="638" d="M115 178.5q0 24.5 16 54.5l158 252l-158 252q-16 31 -16 50.5t8 33t27.5 32.5t25.5 28l305 -396l-305 -395q-2 2 -19.5 18.5t-29.5 31t-12 39z" />
<glyph unicode="&#x205f;" horiz-adv-x="482" />
<glyph unicode="&#x20ac;" horiz-adv-x="1185" d="M20 479v119h136q-2 33 -2 100v35h-134v119h142q31 266 174 415.5t365.5 149.5t424.5 -104l-53 -144q-166 86 -354 86q-100 0 -153.5 -24.5t-104.5 -79.5q-70 -76 -103 -299h523l-37 -119h-498v-35q0 -70 2 -100h459l-31 -119h-414q64 -340 376 -340q149 0 343 92l41 -131 q-209 -121 -401 -120q-475 0 -553 499h-148z" />
<glyph unicode="&#xe000;" horiz-adv-x="983" d="M0 0v983h983v-983h-983z" />
<glyph unicode="&#xfb01;" horiz-adv-x="1208" d="M76 877v98l170 18v215q0 199 105.5 304.5t281.5 105.5q223 0 383 -84l-33 -291h-160l-32 184q-98 43 -193.5 43t-142.5 -36.5t-47 -116.5v-324h589v-792q0 -45 8.5 -59.5t38.5 -18.5l113 -12v-111h-481v111l112 12q31 4 39.5 18.5t8.5 59.5v585q0 45 -8.5 60.5 t-39.5 17.5l-139 13h-241v-676q0 -45 8 -60.5t39 -17.5l159 -14v-109h-532v111l117 12q31 2 39 17.5t8 60.5v676h-170z" />
<glyph unicode="&#xfb02;" horiz-adv-x="1222" d="M76 877v98l166 18h4v215q0 199 105.5 304.5t277.5 105.5t366 -84v-27h2v-1306q0 -45 8.5 -59.5t38.5 -18.5l113 -12v-111h-481v111l112 12q31 4 39.5 18.5t8.5 59.5v1183q-100 90 -264 90.5t-164 -157.5v-324l262 21v-137h-262v-676q0 -45 8 -60.5t39 -17.5l159 -14v-109 h-532v111l117 12q31 2 39 17.5t8 60.5v676h-170z" />
</font>
</defs>
</svg>
