<?xml version="1.0" standalone="no"?>
<!DOCTYPE svg PUBLIC "-//W3C//DTD SVG 1.1//EN" "http://www.w3.org/Graphics/SVG/1.1/DTD/svg11.dtd" >
<svg xmlns="http://www.w3.org/2000/svg">
<metadata></metadata>
<defs>
<font id="ExpletusSansRegular" horiz-adv-x="1079" >
<font-face units-per-em="2048" ascent="1638" descent="-410" />
<missing-glyph horiz-adv-x="526" />
<glyph horiz-adv-x="0" />
<glyph horiz-adv-x="2048" />
<glyph unicode=" "  horiz-adv-x="526" />
<glyph unicode="&#x09;" horiz-adv-x="526" />
<glyph unicode="&#xa0;" horiz-adv-x="526" />
<glyph unicode="!" horiz-adv-x="718" d="M115 90q0 53 33.5 89t87.5 36q53 0 88.5 -36t35.5 -89t-35.5 -87t-88.5 -34t-87 34t-34 87zM143 1489h193l-29 -1110h-139z" />
<glyph unicode="&#x22;" horiz-adv-x="759" d="M111 1087v402h178v-160q0 -179 -89 -233q-34 -21 -89 -9zM467 1087v402h178v-160q0 -180 -89 -233q-34 -21 -89 -9z" />
<glyph unicode="#" horiz-adv-x="1830" d="M168 338v133h254l94 500h-227v133h254l63 334h156l-64 -334h473l64 334h156l-64 -334h223v-133h-247l-97 -500h224v-133h-248l-64 -338h-155l63 338h-399q45 133 172 133h252l94 500h-471l-185 -971h-155l63 338h-229z" />
<glyph unicode="$" horiz-adv-x="1052" d="M92 74l53 133q179 -80 336 -80q126 0 210 71q79 68 79 159.5t-48 149.5t-121 104t-158 88t-157 97q-169 129 -169 318q0 134 97 230q98 96 251 112v203h147v-207q88 -9 256 -57l-57 -133q-150 45 -266.5 45t-175 -57.5t-58.5 -135.5t49.5 -133t122 -101t158.5 -91.5 t159 -102.5q171 -135 171 -326q0 -130 -92 -232q-102 -113 -267 -140v-207h-147v196q-193 9 -373 97z" />
<glyph unicode="%" horiz-adv-x="1667" d="M59 1051q0 191 93 308q87 109 237 109q149 0 236 -109q92 -116 92 -308t-92 -309q-86 -109 -234.5 -109t-240 108.5t-91.5 309.5zM233 1049.5q0 -150.5 42 -222t114 -71.5t113 71.5t41 222.5t-41 223.5t-113 72.5t-114 -73t-42 -223.5zM324 0l897 1438h143l-897 -1438 h-143zM971 390q0 200 91 308.5t236 108.5t237.5 -108.5t92.5 -305t-91.5 -308.5t-237.5 -112t-237 108.5t-91 308.5zM1145 389q0 -150 41 -222.5t112 -72.5q156 0 156 297q0 147 -41 221t-114 74t-113.5 -73.5t-40.5 -223.5z" />
<glyph unicode="&#x26;" horiz-adv-x="1558" d="M252 428q0 237 248 424q-111 163 -111 299q0 158 105 255q110 103 292 103q161 0 293 -69l-49 -129q-100 51 -248 51q-96 0 -157.5 -54.5t-61.5 -138.5q0 -115 108 -248q34 -42 77 -94l350 -407q92 163 125 356h147q-66 -308 -170 -477l258 -299h-241l-625 733 q-141 -123 -141 -274t68.5 -242.5t197.5 -91.5q44 0 96 18q131 43 225 -39q-155 -127 -352 -127t-322 141q-112 126 -112 310z" />
<glyph unicode="'" horiz-adv-x="391" d="M111 1087v402h168v-160q0 -183 -81 -233q-32 -21 -87 -9z" />
<glyph unicode="(" horiz-adv-x="825" d="M371 606q0 404 69 594q41 113 114 202t191 169l80 -103q-192 -151 -247 -342q-29 -98 -35 -224t-6 -296t6 -296t35 -225q55 -192 247 -343l-80 -102q-119 80 -191.5 169t-113.5 203q-69 191 -69 594z" />
<glyph unicode=")" horiz-adv-x="821" d="M4 -258q192 150 248 343q29 99 35 225t6 296t-6 296t-35 224q-57 194 -248 342l80 103q119 -80 191.5 -169t113.5 -202q70 -193 70 -594t-70 -594q-41 -114 -113.5 -203.5t-191.5 -168.5z" />
<glyph unicode="*" horiz-adv-x="1085" d="M104 1040v156l332 -31l-198 267l135 77l141 -301l139 301l135 -77q-110 -140 -196 -269l330 33v-156q-277 31 -329 31h-3l194 -268l-135 -78l-135 303l-137 -303l-135 78l192 270z" />
<glyph unicode="+" horiz-adv-x="1163" d="M96 559v131h404v428h149v-428h406v-131h-406v-432h-149v432h-404z" />
<glyph unicode="," horiz-adv-x="403" d="M115 201h178v-160q0 -180 -89 -233q-34 -21 -89 -9v402z" />
<glyph unicode="-" horiz-adv-x="768" d="M92 559v131h619v-131h-619z" />
<glyph unicode="." horiz-adv-x="626" d="M190 90q0 53 34 89t87 36t89 -36t36 -89t-35.5 -87t-89.5 -34q-53 0 -87 34t-34 87z" />
<glyph unicode="/" horiz-adv-x="679" d="M20 -127l498 1616h162l-498 -1616h-162z" />
<glyph unicode="0" horiz-adv-x="1353" d="M119 715q0 341 149 547q149 204 404 204q254 0 404.5 -204.5t150.5 -546.5q0 -359 -164 -561q-152 -187 -395.5 -187t-396 201t-152.5 547zM319 715q0 -283 94.5 -441.5t260.5 -158.5t259 157.5t93 439t-93 444.5t-259 163t-260.5 -161t-94.5 -443z" />
<glyph unicode="1" horiz-adv-x="653" d="M-10 1206l426 230h76v-1436h-197v1202l-234 -125z" />
<glyph unicode="2" horiz-adv-x="1052" d="M117 0v78q100 166 214.5 302t210 255t159 222.5t63.5 205.5q0 110 -80 179q-75 65 -198 65t-261 -74l-51 137q155 84 346 84q192 0 314 -96q129 -102 129 -273q0 -201 -233 -469q-64 -75 -128.5 -148t-125 -142.5t-101.5 -135.5l-31 -34l45 8h598v-164h-870z" />
<glyph unicode="3" horiz-adv-x="1081" d="M61 74l48 133q41 -27 121.5 -53.5t169 -26.5t145.5 28.5t96 73.5q76 88 76 181.5t-30 144.5t-82 82q-92 55 -286 55l-18 111l107 43q135 60 175 91q87 66 87 162.5t-61.5 153t-155.5 56.5q-147 0 -285 -74l-51 137q159 86 356 86q177 0 288 -92q109 -90 109 -231 q0 -98 -54 -183.5t-152 -138.5l-52 -16l45 -11q170 -62 238 -234q23 -58 23 -137t-38 -160t-104 -143q-147 -135 -364 -135q-117 0 -208 32t-143 65z" />
<glyph unicode="4" horiz-adv-x="1218" d="M94 319v125l668 992h178v-971h164v-146h-164v-319h-178v1118l4 56l-31 -52l-440 -637l-23 -22l33 4h189q103 0 172 -105q16 -26 24 -43h-596z" />
<glyph unicode="5" horiz-adv-x="1095" d="M92 78l47 133q147 -84 303 -84q165 0 244 102q66 85 66 179t-25 147t-70 89t-105 52.5t-151 16.5t-245 -41l53 764h682v-162h-543l-33 -428q111 12 146 12q238 0 371 -135q120 -120 120 -299q0 -186 -132 -312q-142 -135 -376 -135q-129 0 -274 59q-45 19 -78 42z" />
<glyph unicode="6" horiz-adv-x="1339" d="M158 668q0 141 45 280t132 250t216 179.5t295 68.5q107 0 215 -47l-45 -135q-76 34 -177.5 34t-190.5 -46t-154 -129q-136 -176 -136 -451q0 -357 166 -498q64 -55 166 -55q119 0 194 90q74 88 74 231t-65.5 215t-157.5 72q-31 0 -70.5 -10t-74.5 -6t-64 14 q-41 14 -90 53q114 60 158 73q77 23 155 23t156 -27.5t135 -82.5q119 -116 119 -322q0 -189 -127 -324q-138 -147 -338 -147q-283 0 -422 223q-114 180 -114 474z" />
<glyph unicode="7" horiz-adv-x="1026" d="M78 1266v170h874v-156q-200 -259 -304 -502q-143 -329 -183 -778h-199q93 711 482 1266h-670z" />
<glyph unicode="8" horiz-adv-x="1257" d="M166 365q0 120 85 240q34 48 87 106q35 -49 48 -108.5t-15.5 -115t-28.5 -108.5t22.5 -103.5t62.5 -85.5q83 -71 214 -71t213 68.5t82 167t-53.5 153.5t-133 95t-174 76t-174 86t-133 126t-53.5 180t37 173t96 116q125 98 297 98q179 0 301 -98q127 -102 127 -273 q0 -100 -53 -185t-129 -171q109 -63 161 -138q68 -97 68 -209.5t-39 -186.5t-105 -124q-136 -102 -337 -102q-203 0 -335 102q-138 107 -138 292zM399 1083q0 -55 30 -97t79 -74.5t111.5 -58.5t130.5 -54q66 63 104.5 124.5t38.5 131t-21.5 116t-57.5 77.5q-73 61 -169 61 q-97 0 -169 -59q-77 -62 -77 -167z" />
<glyph unicode="9" horiz-adv-x="1339" d="M156 985q0 187 128 323q137 146 339 146q283 0 421 -221q115 -182 115 -471q0 -141 -45 -281.5t-133 -251t-217 -180t-295 -69.5q-106 0 -215 51l47 135q83 -37 181 -37t188 46t154 130q134 174 134 453q0 356 -164 494q-65 55 -145.5 55t-131 -23.5t-85.5 -66.5 q-74 -91 -74 -231t64.5 -213t159.5 -73q17 0 63.5 9.5t81.5 6.5t65 -14q49 -17 87 -55q-168 -92 -278.5 -92t-188.5 27.5t-136 81.5q-120 115 -120 321z" />
<glyph unicode=":" horiz-adv-x="612" d="M190 90q0 53 34 89t87 36t89 -36t36 -89t-35.5 -87t-89.5 -34q-53 0 -87 34t-34 87zM190 870q0 53 34 89t87 36t89 -35.5t36 -89.5q0 -53 -35.5 -86.5t-89.5 -33.5q-53 0 -87 33.5t-34 86.5z" />
<glyph unicode=";" horiz-adv-x="612" d="M190 870q0 53 34 89t87 36t89 -35.5t36 -89.5q0 -53 -35.5 -86.5t-89.5 -33.5q-53 0 -87 33.5t-34 86.5zM225 201h181v-160q0 -104 -28 -158.5t-62.5 -75t-90.5 -8.5v402z" />
<glyph unicode="&#x3c;" horiz-adv-x="1255" d="M76 514v102l1059 514v-163l-834 -387l-53 -15l53 -12l834 -387v-166z" />
<glyph unicode="=" horiz-adv-x="1241" d="M137 360v140h967v-140h-967zM137 813v139h967v-139h-967z" />
<glyph unicode="&#x3e;" horiz-adv-x="1255" d="M76 0v166l833 387l54 12l-54 15l-833 387v163l1059 -514v-102z" />
<glyph unicode="?" horiz-adv-x="1193" d="M221 1425q155 84 346 84q178 0 288 -89t110 -218q0 -138 -104 -282q-44 -60 -95 -117.5t-95 -119.5q-104 -147 -104 -304h-147q0 259 172 459q107 126 139.5 195t32.5 144.5t-60.5 130t-178.5 54.5t-253 -74zM369 90q0 53 34.5 89t88.5 36q53 0 88.5 -36t35.5 -89 t-35.5 -87t-88.5 -34t-88 34t-35 87z" />
<glyph unicode="@" horiz-adv-x="1882" d="M174 526q0 190 62.5 337t167.5 245q215 199 542 199q321 0 522 -175q205 -179 205 -491q0 -216 -133 -353q-128 -131 -356 -173q-23 12 -34 30.5t-22 44.5l-4 39l-20 -41q-59 -59 -113.5 -75.5t-109.5 -16.5q-131 0 -205 62.5t-74 176.5t101.5 173t330.5 84 q-11 -74 -62 -112q-22 -15 -52 -19q-166 -22 -166 -129q0 -51 41 -83t106 -32q135 0 217 111v299q0 94 -45 151.5t-150 57.5t-204 -41l-41 104q130 55 276 55t230 -89t84 -249v-282q0 -25 2 -47l-2 -49q6 4 15 12t15 12q123 78 173.5 169t50.5 215t-41 225.5t-116 170.5 q-155 144 -421 144q-273 0 -439 -164q-177 -175 -177 -496q0 -316 174 -492q161 -163 413 -163q145 0 232.5 21.5t150.5 41.5l43 -112q-232 -72 -408 -72t-311 44t-234 138q-214 205 -214 594z" />
<glyph unicode="A" horiz-adv-x="1406" d="M72 0l536 1489h191l536 -1489h-209l-415 1200l-15 60l-14 -60l-229 -657l-23 -43l25 4h276q74 0 113 -44t61 -104h-516l-123 -356h-194z" />
<glyph unicode="B" horiz-adv-x="1316" d="M178 0v1470q234 46 397.5 46t261 -31t161.5 -84q128 -105 128 -281q0 -130 -88 -237q-28 -35 -65 -60l-60 -28l58 -15q243 -114 243 -360q0 -173 -124 -302q-139 -143 -349 -143q-131 0 -286 37q31 53 77 92q36 30 85 30q15 0 32 -3q37 -6 91 -6t102.5 22.5t85.5 61.5 q80 84 80 203q0 143 -117 225q-103 72 -283 72h-235v-709h-195zM373 850h235q151 0 235 78q81 75 81 185.5t-80 180.5t-220.5 70t-250.5 -12v-502z" />
<glyph unicode="C" horiz-adv-x="1335" d="M147 741q0 342 213 559q212 216 529 216q174 0 362 -70l-53 -133q-164 53 -289.5 53t-222 -39t-170.5 -117q-160 -167 -160 -469q0 -271 160 -448q153 -170 373 -170q149 0 309 80l53 -133q-179 -95 -349.5 -95t-305.5 53.5t-236 153.5q-213 211 -213 559z" />
<glyph unicode="D" horiz-adv-x="1460" d="M182 0v1466q213 50 416 50t354.5 -52.5t255.5 -151.5q211 -204 211 -564q0 -330 -201 -554q-92 -104 -214 -161.5t-259 -57.5q-143 0 -286 35q64 118 173 118q9 0 19 -1q33 -4 51 -4h41q196 0 333 183q134 180 134 459.5t-150.5 440t-453.5 160.5q-115 0 -229 -14v-1352 h-195z" />
<glyph unicode="E" horiz-adv-x="1181" d="M182 0v1489h848v-148h-653v-1194h684v-147h-879zM455 709q23 59 62.5 101t113.5 42h330v-143h-506z" />
<glyph unicode="F" horiz-adv-x="1173" d="M182 0v1489h848v-148h-653v-1341h-195zM455 709q23 59 62.5 101t113.5 42h330v-143h-506z" />
<glyph unicode="G" horiz-adv-x="1320" d="M72 743q0 172 61.5 314.5t165.5 244t243.5 158t297.5 56.5q216 0 405 -91l-53 -133q-175 74 -352 74q-231 0 -386 -154q-173 -170 -173 -469q0 -296 173 -467q155 -153 386 -153q126 0 229 35v532h188v-614q-190 -101 -417 -101q-327 0 -541 205q-227 217 -227 563z" />
<glyph unicode="H" horiz-adv-x="1495" d="M182 0v1489h195v-1489h-195zM455 709q23 59 62.5 101t111.5 42h493v637h195v-1489h-195v709h-667z" />
<glyph unicode="I" horiz-adv-x="552" d="M182 0v1489h189v-1489h-189z" />
<glyph unicode="J" horiz-adv-x="704" d="M-10 -322q76 63 140.5 117.5t110.5 118.5q97 133 97 348v1227h197v-1227q0 -245 -125 -406q-60 -77 -146 -143.5t-192 -138.5z" />
<glyph unicode="K" horiz-adv-x="1353" d="M182 0v1489h195v-1489h-195zM468 633q19 128 79 211l477 645h221l-463 -602l531 -887h-236l-397 711l-14 37l-19 -37l-162 -213q-20 44 -20 94q0 20 3 41z" />
<glyph unicode="L" horiz-adv-x="1064" d="M182 0v1489h197v-1339h622l-2 -150h-817z" />
<glyph unicode="M" horiz-adv-x="1943" d="M141 0l166 1489h252l399 -1196l15 -64l14 64l399 1196h252l164 -1489h-186l-117 1192l-6 88l-25 -88l-405 -1172h-182l-408 1174l-27 86l-6 -86l-114 -1194h-185z" />
<glyph unicode="N" horiz-adv-x="1533" d="M213 0v1489h195l722 -1155l25 -68l-4 72v1151h172v-1489h-174l-746 1190l-28 70l4 -70v-1190h-166z" />
<glyph unicode="O" horiz-adv-x="1619" d="M92 752.5q0 189.5 62.5 335t163 241.5t222.5 143.5t265 47.5t272 -61.5t217 -166.5q179 -215 179 -547q0 -344 -207 -563q-198 -211 -484 -211q-143 0 -269 53.5t-219 152.5t-147.5 242.5t-54.5 333zM301 747q0 -141 36 -255.5t101 -197.5q135 -175 344 -175 q214 0 350 182q132 178 132 444q0 280 -142 457q-134 168 -340 168q-205 0 -340 -168q-141 -177 -141 -455z" />
<glyph unicode="P" horiz-adv-x="1247" d="M182 4v1471q205 41 374 41t269.5 -36t170.5 -98q147 -127 147 -317q0 -187 -147 -311q-159 -132 -394 -132q-17 0 -34 1q-52 2 -109 18q23 53 68.5 89t105 36t113 22.5t95.5 62.5q95 90 95 214q0 126 -98 215q-94 86 -222.5 86t-238.5 -12v-1354z" />
<glyph unicode="Q" horiz-adv-x="1613" d="M109 745q0 343 207 565q195 210 483 210q299 0 489 -208q199 -217 199 -567q0 -139 -44 -255.5t-138 -251.5l155 -158l-110 -107l-506 514l110 109l205 -213l27 -39l14 49q78 146 78 352q0 278 -140 457q-133 168 -339 168t-341 -168q-143 -180 -143 -457 q0 -281 139 -455q134 -169 339 -169q60 0 117 15q30 8 61 8q27 0 55 -6q61 -13 96 -50q-165 -117 -319.5 -117t-280 54.5t-217.5 156.5q-196 216 -196 563z" />
<glyph unicode="R" horiz-adv-x="1327" d="M182 0v1470q240 48 391.5 48t252 -35t170.5 -95q147 -126 147 -309v-4q0 -123 -68.5 -216t-175.5 -146l-49 -17l41 -16q76 -51 116 -125t67.5 -163t53 -188.5t72.5 -203.5h-205q-41 88 -64.5 188.5t-52 192.5t-72.5 163.5t-124 102.5q-17 -5 -54 -5q-18 0 -42 1 q-70 4 -127 19q23 53 68.5 87.5t105 36.5t113 25t95.5 61q95 84 95 207q0 120 -98 205q-97 84 -231.5 84t-229.5 -18v-1350h-195z" />
<glyph unicode="S" horiz-adv-x="1134" d="M121 68l53 133q175 -78 335 -78t240 72.5t80 170t-51 156t-127 105.5t-166 91t-165.5 100t-127 134t-51.5 173.5t30 163t85 118.5q118 109 299 109q174 0 371 -62l-56 -133q-147 45 -295 45q-110 0 -175 -66q-62 -61 -62 -148t51 -143.5t129 -103.5t167 -93t167 -105.5 t129 -139.5t51 -176t-31.5 -167.5t-94.5 -127.5q-136 -121 -359 -121q-236 0 -426 93z" />
<glyph unicode="T" horiz-adv-x="1114" d="M20 1341v148h1067v-148h-436v-1341h-196v1341h-435z" />
<glyph unicode="U" horiz-adv-x="1421" d="M160 549v940h192v-973q0 -182 97.5 -289.5t261.5 -107.5t261 107.5t97 289.5v973h193v-940q0 -259 -153 -418q-154 -160 -402 -160q-127 0 -229.5 42t-173.5 118q-144 154 -144 418z" />
<glyph unicode="V" horiz-adv-x="1290" d="M27 1489h211l401 -1223l14 -67l17 65l399 1225h203l-518 -1489h-205z" />
<glyph unicode="W" horiz-adv-x="1990" d="M43 1489h197l303 -1208l16 -101l23 101l317 1187h209l309 -1189l21 -101l18 96l301 1215h193l-400 -1489h-229l-305 1159l-17 86l-16 -82l-303 -1163h-238z" />
<glyph unicode="X" horiz-adv-x="1282" d="M70 0l409 676q64 -88 64 -161q0 -45 -25 -85l-237 -430h-211zM96 1489h228l301 -543l18 -51l16 51l306 543h217l-434 -717l460 -772h-221z" />
<glyph unicode="Y" horiz-adv-x="1351" d="M57 1489h222l479 -799v-690h-191v633zM780 1028l258 461h215l-438 -719q-61 84 -61 161q0 50 26 97z" />
<glyph unicode="Z" horiz-adv-x="1224" d="M174 0v78l791 1235l32 35l-49 -7h-684v148h961v-78l-793 -1239l-31 -31l45 6h799v-147h-1071z" />
<glyph unicode="[" horiz-adv-x="915" d="M297 -408v1987h526v-147h-350v-1692h352l-2 -148h-526z" />
<glyph unicode="\" horiz-adv-x="774" d="M51 1489h182l498 -1616h-182z" />
<glyph unicode="]" horiz-adv-x="935" d="M109 -260h352v1692h-350v147h524v-1987h-524z" />
<glyph unicode="^" horiz-adv-x="1286" d="M172 430l422 1059h104l422 -1059h-157l-304 758l-12 53l-12 -53l-301 -758h-162z" />
<glyph unicode="_" horiz-adv-x="1017" d="M55 0h908v-129h-908v129z" />
<glyph unicode="`" horiz-adv-x="401" d="M41 1489h219l135 -256q-132 -35 -207 59z" />
<glyph unicode="a" d="M94 270q0 156 126 234q127 78 442 114q-13 -59 -34 -87q-44 -60 -113 -70t-111 -28.5t-66 -42.5q-41 -38 -41 -104t45 -112.5t123 -46.5q157 0 270 147v383q0 121 -59.5 198t-198.5 77q-99 0 -237 -49l-47 127q160 69 340 69t287.5 -113.5t107.5 -322.5v-293 q0 -233 33 -350h-140q-43 24 -73 104l-3 37l-22 -37q-78 -78 -144.5 -101t-143.5 -23t-140.5 22.5t-108.5 61.5q-92 78 -92 206z" />
<glyph unicode="b" horiz-adv-x="1191" d="M170 82v1470h190v-1392q90 -33 185.5 -33t154 29.5t99.5 83.5q84 109 84 304.5t-81 291.5q-75 89 -194 89q-10 0 -20 -1h-11q-85 0 -147 92q108 55 206.5 55t176.5 -33.5t139 -101.5q131 -148 131 -401q0 -244 -143 -400q-142 -155 -368 -155t-402 102z" />
<glyph unicode="c" horiz-adv-x="874" d="M86 530q0 255 148 408q135 141 346 141q135 0 249 -43l-47 -133q-107 29 -184 29t-129.5 -24.5t-92.5 -73.5q-87 -108 -87 -304q0 -198 87 -305q80 -98 204 -98q92 0 225 59l51 -135q-145 -71 -280 -71q-96 0 -188 36q-186 72 -263 278q-39 103 -39 236z" />
<glyph unicode="d" horiz-adv-x="1224" d="M104 535q0 237 146 391q140 145 330 145q112 0 204 -35q-64 -112 -184 -112h-8h-10q-111 0 -186 -88q-89 -106 -89 -301q0 -284 159 -377q52 -31 120 -31q145 0 268 149v1276h190v-1202q0 -213 31 -350h-137q-42 39 -72 111l-4 32l-16 -34q-63 -72 -145.5 -100.5 t-168.5 -28.5t-168.5 43t-141.5 117q-118 151 -118 395z" />
<glyph unicode="e" horiz-adv-x="1114" d="M115 539q0 248 135 394q134 146 366 146q104 0 186.5 -47t131.5 -126q65 -104 65 -229q0 -79 -26 -165h-594q23 59 61.5 98t112.5 39h260q2 19 2 36q0 95 -54 165q-63 82 -178.5 82t-196.5 -102.5t-81 -292.5q0 -181 93 -297q92 -113 233 -113q72 0 134 14.5t150 59.5 l52 -135q-165 -86 -357 -86q-226 0 -362 158q-133 155 -133 401z" />
<glyph unicode="f" horiz-adv-x="798" d="M10 918v98l176 43v57q0 203 104 324q105 123 290 123q123 0 247 -54l-43 -125q-103 39 -164 39t-104 -16t-76 -50q-75 -76 -75 -220v-1137h-179v918h-176zM438 918q23 59 62 100t112 41h123v-141h-297z" />
<glyph unicode="g" horiz-adv-x="1169" d="M111 524q0 252 152 402q154 153 390 153q164 0 363 -65v-1014q0 -231 -132 -370q-133 -142 -354 -142q-204 0 -370 86l53 139q160 -78 301 -78q136 0 221 83q94 92 94 259v932q-90 23 -176 23q-154 0 -248 -104.5t-94 -303.5q0 -285 159 -366q43 -22 89 -22q11 0 21 1 q16 2 31 2q39 0 70 -12q42 -16 79 -64q-96 -66 -196 -75q-20 -1 -39 -1q-78 0 -143 29q-81 35 -142 107q-129 154 -129 401z" />
<glyph unicode="h" horiz-adv-x="1191" d="M170 0v1552h190v-1552h-190zM432 971q187 108 309 108q134 0 203 -69q84 -84 84 -260v-750h-197v770q0 72 -27.5 117t-86.5 45q-25 0 -40 -5t-59 -15q-25 -6 -48 -6q-76 0 -138 65z" />
<glyph unicode="i" horiz-adv-x="524" d="M139 1366q0 53 35 89t88 36t88 -36t35 -89t-35 -88t-88 -35t-88 35t-35 88zM164 0v1059h196v-1059h-196z" />
<glyph unicode="j" horiz-adv-x="571" d="M-51 -399q158 135 211 239q47 91 47 240v979h194v-979q0 -176 -68 -295q-83 -145 -296 -293zM182 1367q0 54 34 90t88 36t90 -36t36 -90t-36 -89t-90 -35t-88 35t-34 89z" />
<glyph unicode="k" horiz-adv-x="1189" d="M170 0v1552h190v-1552h-190zM463 375q-17 43 -17 90q0 63 30 134q16 40 44 73l334 387h225l-338 -373l400 -686h-217l-303 553z" />
<glyph unicode="l" horiz-adv-x="520" d="M174 0v1552h186v-1552h-186z" />
<glyph unicode="m" horiz-adv-x="1847" d="M143 1059h148q49 -55 64.5 -109.5t15.5 -115.5v-834h-197v801q0 127 -31 258zM426 973q183 106 311 106q293 0 293 -329v-750h-196v770q0 72 -30 117t-89 45q-27 0 -87 -14q-31 -7 -60 -7q-83 0 -142 62zM1065 971q182 108 319 108q211 0 279 -171q25 -64 25 -158v-750 h-197v770q0 72 -30.5 117t-96.5 45q-26 0 -90 -16q-34 -8 -64 -8q-85 0 -145 63z" />
<glyph unicode="n" horiz-adv-x="1220" d="M143 1059h148q49 -55 64.5 -109.5t15.5 -115.5v-834h-197v801q0 127 -31 258zM426 971q187 108 311 108q305 0 305 -329v-750h-196v770q0 72 -32 117t-95 45q-25 0 -43 -5q-20 -5 -62 -15q-19 -5 -40 -5q-26 1 -54 7q-52 12 -94 57z" />
<glyph unicode="o" horiz-adv-x="1159" d="M82 534q0 137 43 241t113 171q136 133 337 133q228 0 365 -159q129 -149 129 -390q0 -258 -147 -410q-137 -140 -347 -140q-214 0 -349 140q-144 152 -144 414zM285 536q0 -96 19.5 -169.5t55.5 -126.5q77 -113 215 -113q145 0 221 119q70 110 70 284q0 196 -87 304 q-80 98 -204 98q-123 0 -203 -98q-87 -108 -87 -298z" />
<glyph unicode="p" horiz-adv-x="1224" d="M150 1059h137q47 -40 71 -111l4 -33l17 37q66 72 146.5 99.5t166.5 27.5t170 -43t142 -118q116 -150 116 -394q0 -236 -146 -391q-135 -145 -329 -145q-112 0 -205 35q64 112 185 112h8h10q110 0 185 89q90 108 90 300q0 282 -159 377q-52 31 -120 31q-147 0 -268 -150 v-1276h-189v1203q0 209 -32 350z" />
<glyph unicode="q" horiz-adv-x="1191" d="M113 524q0 250 152.5 402.5t389.5 152.5q164 0 363 -65v-1508h-187v1403q-90 23 -176 23q-154 0 -248 -104.5t-94 -303.5q0 -285 159 -366q43 -22 89 -22q11 0 21 1q16 2 31 2q39 0 70 -13q42 -16 79 -63q-96 -66 -196 -75q-20 -1 -39 -1q-78 0 -143 29q-81 35 -142 107 q-129 154 -129 401z" />
<glyph unicode="r" horiz-adv-x="800" d="M145 1059h142q33 -35 46 -75t23 -89v-37l17 37q41 78 114.5 128t157.5 50q41 0 100 -16l-24 -160q-50 12 -97.5 12t-95 -19.5t-84.5 -60.5q-84 -95 -84 -264v-565h-182v700q0 219 -33 359z" />
<glyph unicode="s" horiz-adv-x="851" d="M74 66l49 135q148 -74 301 -74q92 0 137 43t45 104.5t-37 98.5t-92 66.5t-118.5 58t-118.5 67.5q-129 90 -129 238q0 106 84 186q93 88 243 88q138 0 285 -53l-47 -133q-118 41 -203.5 41t-131.5 -33t-46 -92t37 -95t92 -66t118.5 -59.5t119.5 -69.5q129 -93 129 -247 q0 -118 -104 -204q-105 -86 -238 -86q-78 0 -167 13t-208 73z" />
<glyph unicode="t" horiz-adv-x="872" d="M20 918v92l189 49v270l180 57v-1017q0 -106 45 -177t118.5 -71t170.5 31l45 -129q-133 -46 -213 -46q-168 0 -257 109t-89 305v527h-189zM463 1059h289v-141h-117q-125 0 -172 141z" />
<glyph unicode="u" horiz-adv-x="1202" d="M145 309v750h193v-770q0 -162 125 -162q25 0 42 5t61 15q25 6 49 6q79 0 141 -65q-178 -108 -314 -108q-297 0 -297 329zM811 225v834h190v-801q0 -126 33 -258h-143q-49 55 -64.5 109.5t-15.5 115.5z" />
<glyph unicode="v" horiz-adv-x="1056" d="M33 1059h205l299 -877l14 51l280 826h197l-397 -1059h-201z" />
<glyph unicode="w" horiz-adv-x="1761" d="M88 1059h205l262 -826l14 -51l15 51l186 500q70 -76 70 -213q0 -16 -1 -32q-3 -50 -20 -99l-162 -389h-194zM768 1059h205l262 -826l14 -51l275 877h194l-372 -1059h-205z" />
<glyph unicode="x" horiz-adv-x="1021" d="M45 0l315 461q42 -49 54 -115q3 -15 2 -30q0 -51 -33 -103l-139 -213h-199zM63 1059h216l219 -367l12 -43l14 43l224 367h200l-348 -520l369 -539h-213q-150 235 -342 530z" />
<glyph unicode="y" horiz-adv-x="1083" d="M33 1059h200l226 -692q24 -74 24 -136q0 -17 -2 -34q-16 -122 -65 -177zM72 -473l49 135q68 -18 127 -18q103 0 171 124q32 58 58.5 137t59.5 171l317 983h199l-375 -1036q-41 -109 -77 -204t-83 -167t-110 -114q-63 -41 -129 -41h-3q-117 2 -204 30z" />
<glyph unicode="z" horiz-adv-x="917" d="M72 0v78l534 817l31 35l-43 -6h-455v135h717v-78l-528 -813l-33 -35l47 6h526v-139h-796z" />
<glyph unicode="{" horiz-adv-x="825" d="M168 563v117q78 14 138.5 56t64.5 114q21 265 98 422q85 175 268 299l82 -103q-209 -163 -261 -399q-17 -78 -23 -167q-11 -164 -154 -259l-51 -22l53 -25q143 -93 152 -252q13 -216 69 -338q68 -149 215 -264l-82 -102q-190 132 -274 307q-79 166 -96 446 q-4 72 -62.5 114t-136.5 56z" />
<glyph unicode="|" horiz-adv-x="649" d="M236 -600v2261h163v-2261h-163z" />
<glyph unicode="}" horiz-adv-x="825" d="M168 -258q214 167 262 420q16 84 22 176q12 167 156 262l49 21l-51 22q-142 92 -153 256q-18 276 -158 447q-51 63 -127 122l82 103q266 -178 334 -491q22 -105 32 -230q4 -72 64.5 -114t138.5 -56v-117q-78 -14 -136 -56t-62 -114q-17 -282 -95 -446q-84 -176 -276 -307 z" />
<glyph unicode="~" horiz-adv-x="1257" d="M129 483q6 154 90 225.5t217 73.5q119 0 234 -86q47 -35 98 -60.5t110 -25.5q107 0 121 176l166 -16q-17 -238 -185 -284q-187 -53 -353 71q-51 35 -98.5 60.5t-103.5 24.5t-91 -45t-41 -130z" />
<glyph unicode="&#xa1;" horiz-adv-x="718" d="M115 969q0 53 33.5 87t87.5 34q53 0 88.5 -34t35.5 -87t-35.5 -89t-88.5 -36t-87 36t-34 89zM143 -430l25 1110h139l29 -1110h-193z" />
<glyph unicode="&#xa2;" horiz-adv-x="874" d="M86 725q0 228 119 375q110 134 291 166v200h147v-194q94 -8 186 -41l-51 -135q-103 30 -180 30t-129.5 -24.5t-92.5 -73.5q-87 -107 -87 -303q0 -198 87 -305q80 -98 222 -98q78 0 207 59l51 -135q-101 -53 -213 -68v-207h-147v209q-182 25 -294 166q-116 147 -116 379z " />
<glyph unicode="&#xa3;" horiz-adv-x="1050" d="M115 0v125q111 55 181.5 151.5t70.5 203.5t-13 177h-196v134h176q-25 123 -25 239.5t33 192t88 127.5q113 108 289 108q146 0 309 -76l-51 -137q-136 66 -254.5 66t-176 -74t-57.5 -178t11.5 -188.5t21.5 -162.5q24 -187 2 -305q-29 -115 -118 -206l-44 -37l56 4h571 v-164h-874zM586 791h325v-134h-151q-74 0 -113 37t-61 97z" />
<glyph unicode="&#xa4;" horiz-adv-x="1050" d="M59 1092l80 84l152 -146q93 84 234.5 84t236.5 -82l156 144l79 -84l-159 -146q71 -100 71 -246t-71 -245l153 -152l-82 -82l-149 150q-92 -88 -240 -88q-63 0 -127.5 21.5t-105.5 60.5l-144 -144l-82 82l148 146q-76 101 -76 247t80 250zM279 696q0 -134 81 -221 q68 -72 160 -72q95 0 165 72q79 81 79 230q0 113 -62 196q-68 92 -179 92q-58 0 -103 -23.5t-77 -64.5q-64 -82 -64 -209z" />
<glyph unicode="&#xa5;" horiz-adv-x="1351" d="M57 1489h222l479 -799v-57h340v-96h-340v-158h340v-96h-340v-283h-191v283h-340v96h340v158h-340v96h340zM780 1028l258 461h215l-438 -719q-100 138 -35 258z" />
<glyph unicode="&#xa6;" horiz-adv-x="520" d="M186 289h164v-889h-164v889zM186 793v868h164v-868h-164z" />
<glyph unicode="&#xa7;" horiz-adv-x="1024" d="M74 -18l59 135q178 -74 332 -74t210 43t56 105.5t-45 99.5t-113.5 66.5t-148.5 58t-148 67.5q-159 90 -159 238q0 57 36.5 114.5t112.5 100.5l53 20l-43 19q-139 89 -139 223q0 110 99 188q112 89 276 89q159 0 340 -54l-55 -133q-139 41 -250 41q-225 0 -225 -129 q0 -55 45 -92t113.5 -66.5t148.5 -58.5t149 -70q158 -95 158 -247q0 -70 -40 -125.5t-103 -91.5l-48 -19l43 -18q127 -87 127 -224q0 -131 -114 -212q-114 -80 -277 -80q-239 0 -450 86zM291 728q0 -48 29.5 -80t76.5 -57.5t107.5 -48t122.5 -46.5q135 77 135 180 q0 73 -98 126q-46 25 -102 46.5t-113 44.5q-74 -29 -116 -73t-42 -92z" />
<glyph unicode="&#xa8;" horiz-adv-x="833" d="M78 1372q0 45 31.5 76t75.5 31t76 -31t32 -76t-32 -75.5t-76 -30.5t-75.5 30.5t-31.5 75.5zM475 1372q0 45 32 76t76 31t75.5 -31t31.5 -76t-31.5 -75.5t-75.5 -30.5t-76 30.5t-32 75.5z" />
<glyph unicode="&#xa9;" horiz-adv-x="1474" d="M66 731q0 278 183 467q189 195 481 195q148 0 270 -52.5t208 -142.5q183 -192 183 -467q0 -139 -48.5 -261t-134.5 -212q-186 -195 -477 -195q-293 0 -482 195q-183 189 -183 473zM213 725q0 -238 143 -391q143 -152 375 -152q225 -4 369 151q143 155 143 398 q0 238 -143 393q-142 152 -371 152q-115 0 -210 -41t-163 -113q-143 -155 -143 -397zM440 731q0 172 100 273q94 96 232 96q80 0 170 -29l-35 -98q-62 20 -137.5 20t-133.5 -65.5t-58 -198.5t58 -198.5t134 -65.5t156 39l35 -96q-94 -48 -175.5 -48t-141.5 25t-105 72 q-99 103 -99 274z" />
<glyph unicode="&#xaa;" d="M92 807q0 111 89 167q88 55 311 81q-17 -103 -103 -115q-127 -22 -144 -84q-5 -18 -5 -51t29.5 -62.5t84.5 -29.5q111 0 189 104v262q0 86 -41 136.5t-123.5 50.5t-181.5 -35l-33 94q111 49 236.5 49t204.5 -80t79 -225v-205q0 -164 23 -246h-103q-23 12 -33 32t-20 42 v25l-16 -25q-55 -55 -101.5 -71.5t-97.5 -16.5q-113 0 -178.5 58.5t-65.5 144.5z" />
<glyph unicode="&#xab;" horiz-adv-x="1255" d="M147 528l443 426l90 -88l-295 -338l295 -338l-90 -88zM659 528l443 426l90 -88l-295 -338l295 -338l-90 -88z" />
<glyph unicode="&#xac;" horiz-adv-x="1165" d="M88 766v131h995v-578h-149v447h-846z" />
<glyph unicode="&#xad;" horiz-adv-x="768" d="M92 559v131h619v-131h-619z" />
<glyph unicode="&#xae;" horiz-adv-x="1474" d="M66 731q0 278 183 467q189 195 481 195q148 0 270 -52.5t208 -142.5q183 -192 183 -467q0 -139 -48.5 -261t-134.5 -212q-186 -195 -477 -195q-293 0 -482 195q-183 189 -183 473zM213 725q0 -238 143 -391q143 -152 375 -152q225 -4 369 151q143 155 143 398 q0 238 -143 393q-142 152 -371 152q-115 0 -210 -41t-163 -113q-143 -155 -143 -397zM514 387v684q114 27 221 27t185.5 -57.5t78.5 -157.5q0 -123 -129 -176q61 -38 92 -133q13 -42 25 -90t35 -97h-135q-18 41 -29.5 87t-25.5 88q-31 99 -91 122l-25 -2h-28 q12 25 30.5 54.5t58.5 35.5t64.5 38t24.5 76t-40 77.5t-90.5 33.5t-94.5 -6v-604h-127z" />
<glyph unicode="&#xaf;" horiz-adv-x="1024" d="M236 1255v131h598v-131h-598z" />
<glyph unicode="&#xb0;" horiz-adv-x="690" d="M59 1274q0 59 22.5 111.5t62.5 91.5q88 86 214 86q115 0 201 -74q98 -84 98 -213t-98 -213q-86 -74 -201 -74q-122 0 -208 81q-91 85 -91 204zM188 1294.5q0 -53.5 10.5 -86t31.5 -59.5q46 -57 128 -57q85 0 132 64q40 55 40 109t-14 87.5t-38.5 57.5t-55.5 37t-69 13 t-69.5 -16.5t-53.5 -43.5q-42 -52 -42 -105.5z" />
<glyph unicode="&#xb1;" horiz-adv-x="1163" d="M96 0v129h959v-129h-959zM96 621v131h404v366h149v-366h406v-131h-406v-371h-149v371h-404z" />
<glyph unicode="&#xb2;" horiz-adv-x="823" d="M150 635v74q61 98 127.5 176t122 143.5t92 123.5t36.5 120q0 125 -149 125q-60 0 -150 -35l-45 94q90 51 207 51q118 0 195 -57q84 -62 84 -150t-38 -155.5t-92.5 -130t-110.5 -123t-93 -119.5l-19 -20l27 4h340v-121h-534z" />
<glyph unicode="&#xb3;" horiz-adv-x="780" d="M113 674l37 96q37 -16 74.5 -28.5t109.5 -12.5t116 49t44 109q0 145 -226 145l-12 90l66 27q55 23 99 56.5t44 82.5t-31 77t-93.5 28t-147.5 -35l-48 96q94 51 211 51t184.5 -54t67.5 -130q0 -146 -157 -219q122 -28 169 -135q17 -37 17 -86t-22.5 -97.5t-63.5 -85.5 q-93 -82 -227 -82q-119 0 -211 58z" />
<glyph unicode="&#xb4;" horiz-adv-x="659" d="M143 1233l183 283h198l-180 -224q-76 -91 -201 -59z" />
<glyph unicode="&#xb5;" horiz-adv-x="1132" d="M152 -432v1491h188v-629q0 -203 123 -274q41 -23 93 -23t97 22.5t81 59.5q79 81 79 193v651h191v-770q0 -86 24.5 -121t87.5 -31l19 -131q-136 -47 -223 10q-48 31 -68 109l-8 49l-25 -49q-39 -53 -102.5 -99t-175 -46t-179.5 71l-30 45l4 -65v-463h-176z" />
<glyph unicode="&#xb6;" horiz-adv-x="1247" d="M213 1065q0 186 133 315q64 62 159 99t261.5 37t361.5 -41v-1536h-149v1409q-61 10 -164 16v-1425h-149v684l-4 2q-195 17 -316 133q-133 125 -133 307z" />
<glyph unicode="&#xb7;" horiz-adv-x="626" d="M190 623q0 53 34 89t87 36t89 -36t36 -89t-35.5 -87t-89.5 -34q-53 0 -87 34t-34 87z" />
<glyph unicode="&#xb8;" horiz-adv-x="1024" d="M317 -383l29 88q66 -27 117 -27q125 0 125 64q0 39 -41 58.5t-113 27.5l45 168l96 8l-26 -106q107 -15 149 -92q15 -27 15 -66t-20.5 -70.5t-54.5 -51.5q-66 -40 -159 -40q-77 0 -162 39z" />
<glyph unicode="&#xb9;" horiz-adv-x="653" d="M190 1352l256 137h68v-856h-141v688l-127 -66z" />
<glyph unicode="&#xba;" horiz-adv-x="880" d="M92 989q0 164 92 271q97 114 254 114q149 0 242 -95q104 -106 104 -290q0 -174 -97 -283q-93 -104 -250 -104q-77 0 -140.5 27.5t-109.5 78.5q-95 104 -95 281zM242 977.5q0 -125.5 55 -194t141 -68.5q93 0 148 83q51 75 51 191q0 182 -105 250q-38 25 -90.5 25 t-89.5 -22.5t-62 -61.5q-48 -77 -48 -202.5z" />
<glyph unicode="&#xbb;" horiz-adv-x="1255" d="M143 190l295 338l-295 338l90 88l443 -426l-443 -426zM655 190l295 338l-295 338l90 88l443 -426l-443 -426z" />
<glyph unicode="&#xbc;" horiz-adv-x="1429" d="M68 1352l256 137h67v-856h-141v688l-127 -66zM182 0l893 1489h127l-893 -1489h-127zM713 182v115l383 569h149v-573h98v-111h-98v-182h-131v639l4 49l-26 -45l-228 -328l-22 -24l35 4h30q95 0 148 -113h-342z" />
<glyph unicode="&#xbd;" horiz-adv-x="1562" d="M68 1352l256 137h67v-856h-141v688l-127 -66zM182 0l893 1489h127l-893 -1489h-127zM872 0v74q61 98 128 176t122.5 143.5t92 123.5t36.5 120q0 125 -149 125q-60 0 -150 -35l-45 94q90 51 207 51q118 0 195 -57q84 -62 84 -150t-38 -155.5t-92.5 -130t-110.5 -122.5 t-93 -120l-19 -20l27 4h340v-121h-535z" />
<glyph unicode="&#xbe;" horiz-adv-x="1466" d="M49 674l37 96q37 -16 75 -28.5t109.5 -12.5t115.5 49t44 109q0 145 -225 145l-12 90l65 27q55 23 99 56.5t44 82.5t-30.5 77t-93 28t-148.5 -35l-47 96q94 51 211 51t184.5 -54t67.5 -130q0 -147 -158 -219q124 -28 170 -135q16 -37 16 -86t-22.5 -97.5t-63.5 -85.5 q-93 -82 -227 -82q-116 0 -211 58zM260 0l893 1489h127l-893 -1489h-127zM791 182v115l383 569h149v-573h98v-111h-98v-182h-131v676l-264 -381h57q80 0 127 -77q12 -19 21 -36h-342z" />
<glyph unicode="&#xbf;" horiz-adv-x="1193" d="M221 -143q0 139 104 281q44 61 95 118t95 120q103 146 103 304h148q0 -261 -172 -460q-107 -124 -139.5 -194.5t-32.5 -145.5t60.5 -129t178 -54t252.5 74l52 -138q-155 -84 -347 -84q-176 0 -287 90q-110 89 -110 218zM569 969q0 53 36 87t89 34t88 -34t35 -87 t-34.5 -89t-88.5 -36q-53 0 -89 35.5t-36 89.5z" />
<glyph unicode="&#xc0;" horiz-adv-x="1406" d="M72 0l536 1489h191l536 -1489h-209l-430 1239l-243 -696l-23 -43l25 4h276q74 0 113 -44t61 -104h-516l-123 -356h-194zM469 1823h193l151 -254q-131 -30 -195 53z" />
<glyph unicode="&#xc1;" horiz-adv-x="1406" d="M72 0l536 1489h191l536 -1489h-209l-430 1239l-243 -696l-23 -43l25 4h276q74 0 113 -44t61 -104h-516l-123 -356h-194zM602 1569l182 254h199l-180 -201q-76 -84 -201 -53z" />
<glyph unicode="&#xc2;" horiz-adv-x="1406" d="M72 0l536 1489h191l536 -1489h-209l-430 1239l-243 -696l-23 -43l25 4h276q74 0 113 -44t61 -104h-516l-123 -356h-194zM416 1577l223 246h117l227 -246l-106 -16l-181 120l-180 -122z" />
<glyph unicode="&#xc3;" horiz-adv-x="1406" d="M72 0l536 1489h191l536 -1489h-209l-430 1239l-243 -696l-23 -43l25 4h276q74 0 113 -44t61 -104h-516l-123 -356h-194zM414 1604q4 117 56 168t127 52t130 -48q29 -25 49.5 -45.5t61.5 -20.5q53 0 63 119l109 -12q-11 -175 -114 -211q-30 -11 -58 -11q-84 0 -133 47 q-29 25 -50.5 46.5t-56.5 21.5q-65 0 -72 -119z" />
<glyph unicode="&#xc4;" horiz-adv-x="1406" d="M72 0l536 1489h191l536 -1489h-209l-430 1239l-243 -696l-23 -43l25 4h276q74 0 113 -44t61 -104h-516l-123 -356h-194zM397 1720q0 45 32 76t76 31t75.5 -31t31.5 -76t-31.5 -75.5t-75.5 -30.5t-76 30.5t-32 75.5zM795 1720q0 45 31.5 76t75.5 31t76 -31t32 -76 t-32 -75.5t-76 -30.5t-75.5 30.5t-31.5 75.5z" />
<glyph unicode="&#xc5;" horiz-adv-x="1406" d="M72 0l532 1481q-108 49 -108 159q0 80 56 132.5t147 52.5t144.5 -51.5t53.5 -131.5q0 -107 -98 -155l536 -1487h-209l-430 1239l-243 -696l-23 -43l25 4h276q74 0 113 -44t61 -104h-516l-123 -356h-194zM598 1644.5q0 -43.5 26.5 -74t72.5 -30.5t74 29.5t28 75.5 q0 45 -28 74.5t-73 29.5t-72.5 -30.5t-27.5 -74z" />
<glyph unicode="&#xc6;" horiz-adv-x="1996" d="M43 0l756 1489h930v-148h-664l184 -1194h623v-147h-780l-195 1239l-4 82l-31 -82l-348 -696l-29 -43l37 4h262q74 0 113 -44t61 -104h-534l-178 -356h-203zM1233 709q44 143 168 143h348v-143h-516z" />
<glyph unicode="&#xc7;" horiz-adv-x="1335" d="M147 741q0 342 213 559q212 216 529 216q174 0 362 -70l-53 -133q-164 53 -289.5 53t-222 -39t-170.5 -117q-160 -167 -160 -469q0 -290 160 -459q149 -159 373 -159q149 0 309 80l53 -133q-179 -95 -362 -95q-48 0 -78 5l-20 -82q108 -15 149 -92q14 -27 14 -66 t-20.5 -70.5t-53.5 -51.5q-65 -40 -159 -40q-79 0 -162 39l29 88q66 -27 117 -27q124 0 124 64q0 39 -40.5 58.5t-112.5 27.5l43 164q-259 52 -412 248q-160 206 -160 501z" />
<glyph unicode="&#xc8;" horiz-adv-x="1181" d="M182 0v1489h848v-148h-653v-1194h684v-147h-879zM385 1823h193l151 -254q-131 -30 -194 53zM455 709q23 59 62.5 101t113.5 42h330v-143h-506z" />
<glyph unicode="&#xc9;" horiz-adv-x="1181" d="M182 0v1489h848v-148h-653v-1194h684v-147h-879zM455 709q23 59 62.5 101t113.5 42h330v-143h-506zM510 1569l182 254h199l-180 -201q-76 -84 -201 -53z" />
<glyph unicode="&#xca;" horiz-adv-x="1181" d="M182 0v1489h848v-148h-653v-1194h684v-147h-879zM338 1577l223 246h117l227 -246l-106 -16l-181 120l-180 -122zM455 709q23 59 62.5 101t113.5 42h330v-143h-506z" />
<glyph unicode="&#xcb;" horiz-adv-x="1181" d="M182 0v1489h848v-148h-653v-1194h684v-147h-879zM309 1720q0 45 32 76t76 31t75.5 -31t31.5 -76t-31.5 -75.5t-75.5 -30.5t-76 30.5t-32 75.5zM455 709q23 59 62.5 101t113.5 42h330v-143h-506zM707 1720q0 45 31.5 76t75.5 31t76 -31t32 -76t-32 -75.5t-76 -30.5 t-75.5 30.5t-31.5 75.5z" />
<glyph unicode="&#xcc;" horiz-adv-x="571" d="M55 1823h193l151 -254q-130 -29 -194 53zM201 0v1489h188v-1489h-188z" />
<glyph unicode="&#xcd;" horiz-adv-x="657" d="M172 1569l182 254h199l-180 -201q-76 -84 -201 -53zM182 0v1489h189v-1489h-189z" />
<glyph unicode="&#xce;" horiz-adv-x="657" d="M45 1577l223 246h117l227 -246l-106 -16l-180 120l-181 -122zM231 0v1489h189v-1489h-189z" />
<glyph unicode="&#xcf;" horiz-adv-x="716" d="M47 1720q0 45 32 76t76 31t75.5 -31t31.5 -76t-31.5 -75.5t-75.5 -30.5t-76 30.5t-32 75.5zM258 0v1489h188v-1489h-188zM444 1720q0 45 32 76t76 31t75.5 -31t31.5 -76t-31.5 -75.5t-75.5 -30.5t-76 30.5t-32 75.5z" />
<glyph unicode="&#xd0;" horiz-adv-x="1460" d="M14 662v133h168v671q213 50 416 50t354.5 -55.5t255.5 -156.5q211 -208 211 -556q0 -330 -201 -554q-195 -219 -473 -219q-143 0 -286 35q70 128 192 117q33 -4 51 -4h41q196 0 333 183q134 180 134 459.5t-150.5 440t-453.5 160.5q-115 0 -229 -14v-557h465v-133h-465 v-662h-195v662h-168z" />
<glyph unicode="&#xd1;" horiz-adv-x="1533" d="M213 0v1489h195l722 -1155l25 -68l-4 72v1151h172v-1489h-174l-746 1190l-28 70l4 -70v-1190h-166zM477 1604q4 117 56.5 168t127 52t130.5 -48q29 -25 49 -45.5t61 -20.5q53 0 64 119l108 -12q-11 -175 -113 -211q-30 -11 -59 -11q-84 0 -133 47q-29 25 -50.5 46.5 t-55.5 21.5q-65 0 -72 -119z" />
<glyph unicode="&#xd2;" horiz-adv-x="1619" d="M92 745q0 341 207 565q94 101 219 155.5t267 54.5t268.5 -53.5t219.5 -154t146.5 -244t53.5 -322.5t-55.5 -321t-151.5 -243q-198 -211 -484 -211q-143 0 -269 53.5t-219 152.5q-202 215 -202 568zM301 745q0 -285 143 -459q137 -167 338 -167q205 0 340 167 q142 175 142 458q0 144 -38 260t-104 198q-134 168 -340 168q-205 0 -340 -168q-141 -177 -141 -457zM485 1823h193l151 -254q-130 -29 -194 53z" />
<glyph unicode="&#xd3;" horiz-adv-x="1619" d="M92 745q0 341 207 565q94 101 219 155.5t267 54.5t268.5 -53.5t219.5 -154t146.5 -244t53.5 -322.5t-55.5 -321t-151.5 -243q-198 -211 -484 -211q-143 0 -269 53.5t-219 152.5q-202 215 -202 568zM301 745q0 -285 143 -459q137 -167 338 -167q205 0 340 167 q142 175 142 458q0 144 -38 260t-104 198q-134 168 -340 168q-205 0 -340 -168q-141 -177 -141 -457zM707 1569l182 254h198l-180 -201q-76 -83 -200 -53z" />
<glyph unicode="&#xd4;" horiz-adv-x="1619" d="M92 745q0 341 207 565q94 101 219 155.5t267 54.5t268.5 -53.5t219.5 -154t146.5 -244t53.5 -322.5t-55.5 -321t-151.5 -243q-198 -211 -484 -211q-143 0 -269 53.5t-219 152.5q-202 215 -202 568zM301 745q0 -285 143 -459q137 -167 338 -167q205 0 340 167 q142 175 142 458q0 144 -38 260t-104 198q-134 168 -340 168q-205 0 -340 -168q-141 -177 -141 -457zM504 1577l223 246h117l227 -246l-106 -16l-181 120l-180 -122z" />
<glyph unicode="&#xd5;" horiz-adv-x="1619" d="M92 745q0 341 207 565q94 101 219 155.5t267 54.5t268.5 -53.5t219.5 -154t146.5 -244t53.5 -322.5t-55.5 -321t-151.5 -243q-198 -211 -484 -211q-143 0 -269 53.5t-219 152.5q-202 215 -202 568zM301 745q0 -285 143 -459q137 -167 338 -167q205 0 340 167 q142 175 142 458q0 144 -38 260t-104 198q-134 168 -340 168q-205 0 -340 -168q-141 -177 -141 -457zM496 1604q4 117 56 168t127 52t130 -48q29 -25 49.5 -45.5t61.5 -20.5q53 0 63 119l109 -12q-11 -175 -114 -211q-30 -11 -58 -11q-84 0 -134 47q-29 25 -50 46.5 t-56 21.5q-65 0 -72 -119z" />
<glyph unicode="&#xd6;" horiz-adv-x="1619" d="M92 745q0 341 207 565q94 101 219 155.5t267 54.5t268.5 -53.5t219.5 -154t146.5 -244t53.5 -322.5t-55.5 -321t-151.5 -243q-198 -211 -484 -211q-143 0 -269 53.5t-219 152.5q-202 215 -202 568zM301 745q0 -285 143 -459q137 -167 338 -167q205 0 340 167 q142 175 142 458q0 144 -38 260t-104 198q-134 168 -340 168q-205 0 -340 -168q-141 -177 -141 -457zM479 1720q0 45 32 76t76 31t75.5 -31t31.5 -76t-31.5 -75.5t-75.5 -30.5t-76 30.5t-32 75.5zM877 1720q0 45 31.5 76t75.5 31t76 -31t32 -76t-32 -75.5t-76 -30.5 t-75.5 30.5t-31.5 75.5z" />
<glyph unicode="&#xd7;" horiz-adv-x="1163" d="M111 254l370 373l-370 368l94 92l370 -368l367 368l92 -92l-366 -368l370 -373l-92 -92l-371 370l-372 -370z" />
<glyph unicode="&#xd8;" horiz-adv-x="1619" d="M92 731q0 192 56.5 334.5t150.5 244t219 156t282.5 54.5t303.5 -78l104 174h162l-149 -254q117 -100 184.5 -256t67.5 -347.5t-55.5 -333.5t-151.5 -243q-198 -211 -484 -211q-176 0 -321 78l-101 -172h-161l147 250q-117 98 -185.5 255t-68.5 349zM295 745 q0 -283 145 -460q140 -170 342 -170q98 0 187.5 44t156.5 126q144 178 144 456t-146 459l-549 -928q-35 41 -52 100.5t16 119.5l483 808q-109 74 -223.5 74t-203.5 -44t-155 -126q-145 -178 -145 -459z" />
<glyph unicode="&#xd9;" horiz-adv-x="1421" d="M160 549v940h192v-973q0 -182 97.5 -289.5t261.5 -107.5t261 107.5t97 289.5v973h193v-940q0 -259 -153 -418q-154 -160 -402 -160q-127 0 -229.5 42t-173.5 118q-144 154 -144 418zM455 1823h192l152 -254q-131 -30 -195 53z" />
<glyph unicode="&#xda;" horiz-adv-x="1421" d="M160 549v940h192v-973q0 -182 97.5 -289.5t261.5 -107.5t261 107.5t97 289.5v973h193v-940q0 -259 -153 -418q-154 -160 -402 -160q-127 0 -229.5 42t-173.5 118q-144 154 -144 418zM625 1569l182 254h199l-181 -201q-76 -83 -200 -53z" />
<glyph unicode="&#xdb;" horiz-adv-x="1421" d="M160 549v940h192v-973q0 -182 97.5 -289.5t261.5 -107.5t261 107.5t97 289.5v973h193v-940q0 -259 -153 -418q-154 -160 -402 -160q-127 0 -229.5 42t-173.5 118q-144 154 -144 418zM428 1577l223 246h117l227 -246l-106 -16l-180 120l-181 -122z" />
<glyph unicode="&#xdc;" horiz-adv-x="1421" d="M160 549v940h192v-973q0 -182 97.5 -289.5t261.5 -107.5t261 107.5t97 289.5v973h193v-940q0 -259 -153 -418q-154 -160 -402 -160q-127 0 -229.5 42t-173.5 118q-144 154 -144 418zM406 1720q0 45 31.5 76t75.5 31t76 -31t32 -76t-32 -75.5t-76 -30.5t-75.5 30.5 t-31.5 75.5zM803 1720q0 45 31.5 76t75.5 31t76 -31t32 -76t-32 -75.5t-76 -30.5t-75.5 30.5t-31.5 75.5z" />
<glyph unicode="&#xdd;" horiz-adv-x="1351" d="M57 1489h222l479 -799v-690h-191v633zM616 1569l183 254h198l-180 -201q-76 -83 -201 -53zM780 1028l258 461h215l-438 -719q-100 138 -35 258z" />
<glyph unicode="&#xde;" horiz-adv-x="1247" d="M188 0v1489h189v-307q106 12 227 12t221.5 -36t171 -97.5t108.5 -143.5t38 -177t-40 -173t-107 -134q-172 -142 -428 -132q-52 2 -109 18q23 53 68.5 89t105 36t113 22.5t95.5 62.5q95 90 95 214q0 127 -98 215q-95 86 -223 86t-238 -12v-1032h-189z" />
<glyph unicode="&#xdf;" horiz-adv-x="1161" d="M186 0v1116q0 203 108 324q109 123 296 123q179 0 292 -109q101 -98 101 -250q0 -99 -72 -213q-72 -35 -109.5 -72.5t-37.5 -95t26.5 -97.5t65.5 -74t86 -67.5t86 -77.5q92 -104 92 -239q0 -120 -91 -206q-93 -87 -222 -87q-145 0 -297 76l49 127q121 -55 229 -55 q61 0 104.5 43t43.5 105.5t-26.5 103.5t-65.5 74.5t-86 67.5t-86 75q-92 97 -92 229q0 90 58 165t171 122q12 45 12 95t-17.5 90t-47.5 69q-62 61 -144 61q-98 0 -166 -66q-81 -77 -81 -220v-1137h-179z" />
<glyph unicode="&#xe0;" d="M94 270q0 156 126 234q127 78 442 114q-13 -59 -34 -87q-44 -60 -113 -70t-111 -28.5t-66 -42.5q-41 -38 -41 -104t45 -112.5t123 -46.5q157 0 270 147v383q0 121 -59.5 198t-198.5 77q-99 0 -237 -49l-47 127q160 69 340 69t287.5 -113.5t107.5 -322.5v-293 q0 -233 33 -350h-140q-43 24 -73 104l-3 37l-22 -37q-78 -78 -144.5 -101t-143.5 -23t-140.5 22.5t-108.5 61.5q-92 78 -92 206zM258 1516h195l149 -283q-128 -29 -196 59z" />
<glyph unicode="&#xe1;" d="M92 270q0 156 126.5 234t440.5 114q-14 -61 -33 -88q-44 -59 -113 -69t-111 -28.5t-66 -42.5q-41 -38 -41 -104t45 -112.5t123 -46.5q157 0 270 147v383q0 121 -59.5 198t-198.5 77q-99 0 -237 -49l-48 127q160 69 340.5 69t288 -113.5t107.5 -322.5v-293q0 -229 32 -350 h-139q-29 16 -45 44t-29 60l-2 37l-22 -37q-78 -78 -144.5 -101t-143.5 -23t-140.5 22.5t-108.5 61.5q-92 78 -92 206zM446 1233l183 283h198l-180 -224q-76 -91 -201 -59z" />
<glyph unicode="&#xe2;" d="M94 270q0 156 126 234q127 78 442 114q-13 -59 -34 -87q-44 -60 -113 -70t-111 -28.5t-66 -42.5q-41 -38 -41 -104t45 -112.5t123 -46.5q157 0 270 147v383q0 121 -59.5 198t-198.5 77q-99 0 -237 -49l-47 127q160 69 340 69t287.5 -113.5t107.5 -322.5v-293 q0 -233 33 -350h-140q-43 24 -73 104l-3 37l-22 -37q-78 -78 -144.5 -101t-143.5 -23t-140.5 22.5t-108.5 61.5q-92 78 -92 206zM264 1225l223 297h117l227 -297l-106 -17l-180 172l-180 -174z" />
<glyph unicode="&#xe3;" d="M94 270q0 156 126 234q127 78 442 114q-13 -59 -34 -87q-44 -60 -113 -70t-111 -28.5t-66 -42.5q-41 -38 -41 -104t45 -112.5t123 -46.5q157 0 270 147v383q0 121 -59.5 198t-198.5 77q-99 0 -237 -49l-47 127q160 69 340 69t287.5 -113.5t107.5 -322.5v-293 q0 -233 33 -350h-140q-43 24 -73 104l-3 37l-22 -37q-78 -78 -144.5 -101t-143.5 -23t-140.5 22.5t-108.5 61.5q-92 78 -92 206zM246 1278q4 117 56 168t127 52t130 -48q29 -25 49.5 -45.5t61.5 -20.5q53 0 63 119l109 -12q-11 -177 -114 -211q-30 -10 -58 -10 q-84 0 -133 47q-29 25 -50.5 46t-52.5 21q-69 0 -76 -118z" />
<glyph unicode="&#xe4;" d="M94 270q0 156 126 234q127 78 442 114q-13 -59 -34 -87q-44 -60 -113 -70t-111 -28.5t-66 -42.5q-41 -38 -41 -104t45 -112.5t123 -46.5q157 0 270 147v383q0 121 -59.5 198t-198.5 77q-99 0 -237 -49l-47 127q160 69 340 69t287.5 -113.5t107.5 -322.5v-293 q0 -233 33 -350h-140q-43 24 -73 104l-3 37l-22 -37q-78 -78 -144.5 -101t-143.5 -23t-140.5 22.5t-108.5 61.5q-92 78 -92 206zM242 1372q0 45 31.5 76t75.5 31t76 -31t32 -76t-32 -75.5t-76 -30.5t-75.5 30.5t-31.5 75.5zM639 1372q0 45 31.5 76t76 31t76 -31t31.5 -76 t-31.5 -75.5t-75.5 -30.5t-76 30.5t-32 75.5z" />
<glyph unicode="&#xe5;" d="M94 270q0 156 126 234q127 78 442 114q-13 -59 -34 -87q-44 -60 -113 -70t-111 -28.5t-66 -42.5q-41 -38 -41 -104t45 -112.5t123 -46.5q157 0 270 147v383q0 121 -59.5 198t-198.5 77q-99 0 -237 -49l-47 127q160 69 340 69t287.5 -113.5t107.5 -322.5v-293 q0 -233 33 -350h-140q-43 24 -73 104l-3 37l-22 -37q-78 -78 -144.5 -101t-143.5 -23t-140.5 22.5t-108.5 61.5q-92 78 -92 206zM346 1348q0 78 56.5 130t147.5 52t144.5 -51.5t53.5 -130t-57.5 -129t-145.5 -50.5t-143.5 50.5t-55.5 128.5zM449 1350q0 -43 26.5 -74 t72.5 -31t73.5 30t27.5 75t-27.5 74.5t-72.5 29.5t-72.5 -30.5t-27.5 -73.5z" />
<glyph unicode="&#xe6;" horiz-adv-x="1740" d="M94 270q0 156 126 234q127 78 442 114q-13 -59 -34 -87q-44 -60 -113 -70t-111 -28.5t-66 -42.5q-41 -38 -41 -104t45 -112.5t123 -46.5q129 0 199.5 105.5t70.5 304.5v120q0 121 -59.5 198t-198.5 77q-99 0 -237 -49l-47 127q160 69 300 69t229 -61.5t130 -159.5 q51 97 156 159t219 62t196 -47t131 -126q106 -168 39 -394h-594q23 59 62 98t113 39h260q12 116 -52 201q-63 82 -178.5 82t-196.5 -102.5t-81 -292.5q0 -181 93 -297q92 -113 232 -113q72 0 134.5 14.5t150.5 59.5l51 -135q-165 -86 -356 -86q-125 0 -240 84 q-113 81 -153 204q-41 -133 -148.5 -210.5t-251.5 -77.5q-154 0 -252 84q-92 78 -92 206z" />
<glyph unicode="&#xe7;" horiz-adv-x="874" d="M86 530q0 255 148 408q135 141 346 141q135 0 249 -43l-51 -135q-107 31 -182 31t-127.5 -24.5t-92.5 -73.5q-87 -108 -87 -304q0 -198 87 -305q80 -98 204 -98q92 0 225 59l51 -135q-145 -71 -276 -71h-11l-20 -82q107 -15 149 -92q15 -27 15 -66t-20.5 -70.5 t-54.5 -51.5q-66 -40 -159 -40q-77 0 -162 39l29 88q66 -27 117 -27q125 0 125 64q0 39 -41 58.5t-113 27.5l43 162q-172 29 -279 168q-112 146 -112 372z" />
<glyph unicode="&#xe8;" horiz-adv-x="1114" d="M115 539q0 248 135 394q134 146 366 146q104 0 186.5 -47t131.5 -126q106 -170 39 -394h-594q23 59 61.5 98t112.5 39h260q12 118 -52 201q-63 82 -178.5 82t-196.5 -102.5t-81 -292.5q0 -181 93 -297q92 -113 233 -113q72 0 134 14.5t150 59.5l52 -135 q-165 -86 -357 -86q-226 0 -362 158q-133 155 -133 401zM319 1516h195l150 -283q-127 -29 -197 59z" />
<glyph unicode="&#xe9;" horiz-adv-x="1114" d="M115 539q0 248 135 394q134 146 366 146q104 0 186.5 -47t131.5 -126q106 -170 39 -394h-594q23 59 61.5 98t112.5 39h260q12 118 -52 201q-63 82 -178.5 82t-196.5 -102.5t-81 -292.5q0 -181 93 -297q92 -113 233 -113q72 0 134 14.5t150 59.5l52 -135 q-165 -86 -357 -86q-226 0 -362 158q-133 155 -133 401zM500 1233l182 283h199l-181 -224q-77 -92 -200 -59z" />
<glyph unicode="&#xea;" horiz-adv-x="1114" d="M115 539q0 248 135 394q134 146 366 146q104 0 186.5 -47t131.5 -126q106 -170 39 -394h-594q23 59 61.5 98t112.5 39h260q12 118 -52 201q-63 82 -178.5 82t-196.5 -102.5t-81 -292.5q0 -181 93 -297q92 -113 233 -113q72 0 134 14.5t150 59.5l52 -135 q-165 -86 -357 -86q-226 0 -362 158q-133 155 -133 401zM315 1225l224 297h116l228 -297l-107 -17l-180 172l-180 -174z" />
<glyph unicode="&#xeb;" horiz-adv-x="1114" d="M115 539q0 248 135 394q134 146 366 146q104 0 186.5 -47t131.5 -126q106 -170 39 -394h-594q23 59 61.5 98t112.5 39h260q12 118 -52 201q-63 82 -178.5 82t-196.5 -102.5t-81 -292.5q0 -181 93 -297q92 -113 233 -113q72 0 134 14.5t150 59.5l52 -135 q-165 -86 -357 -86q-226 0 -362 158q-133 155 -133 401zM279 1372q0 45 31.5 76t75.5 31t76 -31t32 -76t-32 -75.5t-76 -30.5t-75.5 30.5t-31.5 75.5zM676 1372q0 45 31.5 76t75.5 31t76 -31t32 -76t-32 -75.5t-76 -30.5t-75.5 30.5t-31.5 75.5z" />
<glyph unicode="&#xec;" horiz-adv-x="565" d="M41 1516h195l149 -283q-127 -29 -197 59zM225 0v1059h197v-1059h-197z" />
<glyph unicode="&#xed;" horiz-adv-x="559" d="M143 0v1059h197v-1059h-197zM147 1233l183 283h198l-180 -224q-76 -91 -201 -59z" />
<glyph unicode="&#xee;" horiz-adv-x="690" d="M61 1225l224 297h116l228 -297l-107 -17l-180 172l-180 -174zM244 0v1059h196v-1059h-196z" />
<glyph unicode="&#xef;" horiz-adv-x="720" d="M55 1372q0 45 32 76t76 31t75.5 -31t31.5 -76t-31.5 -75.5t-75.5 -30.5t-76 30.5t-32 75.5zM264 0v1059h197v-1059h-197zM451 1372q0 45 31.5 76t75.5 31t76 -31t32 -76t-32 -75.5t-76 -30.5t-75.5 30.5t-31.5 75.5z" />
<glyph unicode="&#xf0;" horiz-adv-x="1140" d="M82 530q0 255 148 408q135 141 345 141q75 0 140 -28l86 -50l-51 62q-47 66 -103.5 118t-87.5 74l-256 -122l-39 88l203 100q-67 50 -201 117l66 118q171 -81 289 -165l229 110l43 -90l-184 -88q37 -31 97 -103.5t118 -175.5q145 -256 145 -514t-147 -410 q-137 -140 -347 -140q-214 0 -349 140q-144 152 -144 410zM285 530q0 -198 87 -305q80 -98 203 -98q124 0 204 98q87 107 87 304q0 103 -23.5 179t-63.5 126q-80 98 -204 98q-123 0 -203 -98q-87 -108 -87 -304z" />
<glyph unicode="&#xf1;" horiz-adv-x="1220" d="M143 1059h148q49 -55 64.5 -109.5t15.5 -115.5v-834h-197v801q0 127 -31 258zM311 1278q4 117 56.5 168t127.5 52t130 -48q29 -25 49 -45.5t61 -20.5q53 0 64 119l108 -12q-11 -176 -113 -211q-30 -10 -59 -10q-84 0 -133 47q-29 25 -50.5 46t-51.5 21q-69 0 -76 -118z M426 971q187 108 311 108q305 0 305 -329v-750h-196v770q0 72 -32 117t-95 45q-25 0 -43.5 -5t-61 -15.5t-94 2t-94.5 57.5z" />
<glyph unicode="&#xf2;" horiz-adv-x="1159" d="M82 530q0 255 148 408q135 141 345 141q216 0 349 -141q145 -152 145 -408q0 -258 -147 -410q-137 -140 -347 -140q-214 0 -349 140q-144 152 -144 410zM285 530q0 -198 87 -305q80 -98 203 -98q124 0 204 98q87 107 87 304q0 103 -23.5 179t-63.5 126q-80 98 -204 98 q-123 0 -203 -98q-87 -108 -87 -304zM319 1516h195l150 -283q-127 -29 -197 59z" />
<glyph unicode="&#xf3;" horiz-adv-x="1159" d="M82 530q0 255 148 408q135 141 345 141q216 0 349 -141q145 -152 145 -408q0 -258 -147 -410q-137 -140 -347 -140q-214 0 -349 140q-144 152 -144 410zM285 530q0 -198 87 -305q80 -98 203 -98q124 0 204 98q87 107 87 304q0 103 -23.5 179t-63.5 126q-80 98 -204 98 q-123 0 -203 -98q-87 -108 -87 -304zM481 1233l183 283h198l-180 -224q-76 -91 -201 -59z" />
<glyph unicode="&#xf4;" horiz-adv-x="1159" d="M82 530q0 255 148 408q135 141 345 141q216 0 349 -141q145 -152 145 -408q0 -258 -147 -410q-137 -140 -347 -140q-214 0 -349 140q-144 152 -144 410zM285 530q0 -198 87 -305q80 -98 203 -98q124 0 204 98q87 107 87 304q0 103 -23.5 179t-63.5 126q-80 98 -204 98 q-123 0 -203 -98q-87 -108 -87 -304zM295 1225l223 297h117l227 -297l-106 -17l-181 172l-180 -174z" />
<glyph unicode="&#xf5;" horiz-adv-x="1159" d="M82 530q0 255 148 408q135 141 345 141q216 0 349 -141q145 -152 145 -408q0 -258 -147 -410q-137 -140 -347 -140q-214 0 -349 140q-144 152 -144 410zM281 1278q4 117 56 168t127 52t130 -48q29 -25 49.5 -45.5t61.5 -20.5q53 0 63 119l109 -12q-11 -177 -114 -211 q-30 -10 -58 -10q-84 0 -134 47q-29 25 -50 46t-52 21q-69 0 -76 -118zM285 530q0 -198 87 -305q80 -98 203 -98q124 0 204 98q87 107 87 304q0 103 -23.5 179t-63.5 126q-80 98 -204 98q-123 0 -203 -98q-87 -108 -87 -304z" />
<glyph unicode="&#xf6;" horiz-adv-x="1159" d="M82 530q0 255 148 408q135 141 345 141q216 0 349 -141q145 -152 145 -408q0 -258 -147 -410q-137 -140 -347 -140q-214 0 -349 140q-144 152 -144 410zM268 1372q0 45 32 76t76 31t75.5 -31t31.5 -76t-31.5 -75.5t-75.5 -30.5t-76 30.5t-32 75.5zM285 530 q0 -198 87 -305q80 -98 203 -98q124 0 204 98q87 107 87 304q0 103 -23.5 179t-63.5 126q-80 98 -204 98q-123 0 -203 -98q-87 -108 -87 -304zM666 1372q0 45 31.5 76t75.5 31t76 -31t32 -76t-32 -75.5t-76 -30.5t-75.5 30.5t-31.5 75.5z" />
<glyph unicode="&#xf7;" horiz-adv-x="1163" d="M96 559v131h959v-131h-959zM471 230q0 46 28.5 76t74.5 30t76 -30t30 -76t-29.5 -74.5t-76 -28.5t-75 28.5t-28.5 74.5zM471 1013q0 46 28.5 75.5t74.5 29.5t76 -29.5t30 -75.5t-29.5 -75t-76 -29t-75 29t-28.5 75z" />
<glyph unicode="&#xf8;" horiz-adv-x="1024" d="M82 530q0 255 148 408q135 141 345 141q123 0 230 -53l88 148h151l-133 -224q158 -158 158 -420q0 -258 -147 -410q-137 -140 -347 -140q-117 0 -210 43l-93 -158h-157l135 231q-168 155 -168 434zM279 530q0 -195 90 -307q80 -100 206 -100t207 99q90 110 90 285.5 t-57 278.5l-334 -563q-35 41 -46 101.5t16 109.5l272 457q-66 45 -136.5 45t-123.5 -24.5t-94 -75.5q-90 -110 -90 -306z" />
<glyph unicode="&#xf9;" horiz-adv-x="1202" d="M145 309v750h193v-770q0 -162 125 -162q25 0 42 5t61 15q110 25 190 -59q-178 -108 -314 -108q-297 0 -297 329zM307 1516h195l149 -283q-126 -29 -196 59zM811 225v834h190v-801q0 -126 33 -258h-143q-49 55 -64.5 109.5t-15.5 115.5z" />
<glyph unicode="&#xfa;" horiz-adv-x="1202" d="M145 309v750h193v-770q0 -162 125 -162q25 0 42 5t61 15q110 25 190 -59q-178 -108 -314 -108q-297 0 -297 329zM508 1233l182 283h199l-180 -224q-77 -92 -201 -59zM811 225v834h190v-801q0 -126 33 -258h-143q-49 55 -64.5 109.5t-15.5 115.5z" />
<glyph unicode="&#xfb;" horiz-adv-x="1202" d="M145 309v750h193v-770q0 -162 125 -162q25 0 42 5t61 15q110 25 190 -59q-178 -108 -314 -108q-297 0 -297 329zM295 1225l223 297h117l227 -297l-106 -17l-181 172l-180 -174zM811 225v834h190v-801q0 -126 33 -258h-143q-49 55 -64.5 109.5t-15.5 115.5z" />
<glyph unicode="&#xfc;" horiz-adv-x="1202" d="M145 309v750h193v-770q0 -162 125 -162q25 0 42 5t61 15q110 25 190 -59q-178 -108 -314 -108q-297 0 -297 329zM276 1372q0 45 32 76t76 31t76 -31t32 -76t-32 -75.5t-76 -30.5t-76 30.5t-32 75.5zM674 1372q0 45 31.5 76t75.5 31t76 -31t32 -76t-32 -75.5t-76 -30.5 t-75.5 30.5t-31.5 75.5zM811 225v834h190v-801q0 -126 33 -258h-143q-49 55 -64.5 109.5t-15.5 115.5z" />
<glyph unicode="&#xfd;" horiz-adv-x="1083" d="M33 1059h200l226 -692q31 -96 22 -170q-16 -122 -65 -177zM72 -473l49 135q68 -18 127 -18q103 0 171 124q32 58 58.5 137t59.5 171l317 983h199l-375 -1036q-41 -109 -77 -204t-83 -167t-110.5 -114t-131.5 -41q-117 2 -204 30zM473 1233l182 283h199l-180 -224 q-77 -92 -201 -59z" />
<glyph unicode="&#xfe;" horiz-adv-x="1224" d="M186 -494v2046h185v-1392q90 -33 185.5 -33t153.5 29.5t99 83.5q84 109 84 304.5t-81 291.5t-214 88q-92 -6 -158 92q108 55 207 55t176.5 -33.5t138.5 -101.5q132 -149 132 -401q0 -243 -144 -400q-141 -155 -370 -155q-112 0 -209 36v-510h-185z" />
<glyph unicode="&#xff;" horiz-adv-x="1083" d="M33 1059h200l226 -692q31 -96 22 -170q-16 -122 -65 -177zM72 -473l49 135q68 -18 127 -18q103 0 171 124q32 58 58.5 137t59.5 171l317 983h199l-375 -1036q-41 -109 -77 -204t-83 -167t-110.5 -114t-131.5 -41q-117 2 -204 30zM242 1372q0 45 31.5 76t75.5 31t76 -31 t32 -76t-32 -75.5t-76 -30.5t-75.5 30.5t-31.5 75.5zM639 1372q0 45 31.5 76t76 31t76 -31t31.5 -76t-31.5 -75.5t-75.5 -30.5t-76 30.5t-32 75.5z" />
<glyph unicode="&#x152;" horiz-adv-x="1964" d="M92 745q0 341 207 565q94 101 219 155.5t264 54.5q59 0 142.5 -15.5t160.5 -15.5h787v-148h-653v-1194h684v-147h-818q-84 0 -168 -14.5t-135 -14.5q-143 0 -269 53.5t-219 152.5q-202 215 -202 568zM301 745q0 -285 143 -459q137 -167 338 -167q130 0 242 39v1173 q-123 39 -231.5 39t-196.5 -43t-154 -125q-141 -177 -141 -457zM1296 709q23 59 63 101t114 42h329v-143h-506z" />
<glyph unicode="&#x153;" horiz-adv-x="1867" d="M82 530q0 255 148 408q135 141 345 141q261 0 386 -256q55 123 163.5 189.5t228 66.5t201.5 -47t132 -126q105 -168 38 -394h-594q23 59 62 98t113 39h260q12 116 -53 201q-62 82 -176.5 82t-194.5 -101.5t-84 -300.5q0 -176 94 -292q89 -111 231 -111q72 0 134.5 14.5 t150.5 59.5l51 -135q-165 -86 -356 -86q-131 0 -231.5 73.5t-165.5 192.5q-59 -127 -164 -196.5t-216.5 -69.5t-201.5 35.5t-157 104.5q-144 152 -144 410zM285 530q0 -198 87 -305q80 -98 203 -98q122 0 200 96q89 109 89 306q0 105 -24.5 181t-64.5 126q-78 96 -200 96 q-123 0 -203 -98q-87 -108 -87 -304z" />
<glyph unicode="&#x178;" horiz-adv-x="1351" d="M57 1489h222l479 -799v-690h-191v633zM358 1720q0 45 32 76t76 31t75.5 -31t31.5 -76t-31.5 -75.5t-75.5 -30.5t-76 30.5t-32 75.5zM756 1720q0 45 31.5 76t75.5 31t76 -31t32 -76t-32 -75.5t-76 -30.5t-75.5 30.5t-31.5 75.5zM780 1028l258 461h215l-438 -719 q-100 138 -35 258z" />
<glyph unicode="&#x2c6;" horiz-adv-x="1024" d="M295 1225l223 297h117l227 -297l-106 -17l-181 172l-180 -174z" />
<glyph unicode="&#x2dc;" horiz-adv-x="1024" d="M311 1278q4 117 56.5 168t127.5 52t130 -48q29 -25 49 -45.5t61 -20.5q53 0 64 119l108 -12q-11 -176 -113 -211q-30 -10 -59 -10q-84 0 -133 47q-29 25 -50.5 46t-51.5 21q-69 0 -76 -118z" />
<glyph unicode="&#x2000;" horiz-adv-x="914" />
<glyph unicode="&#x2001;" horiz-adv-x="1829" />
<glyph unicode="&#x2002;" horiz-adv-x="914" />
<glyph unicode="&#x2003;" horiz-adv-x="1829" />
<glyph unicode="&#x2004;" horiz-adv-x="609" />
<glyph unicode="&#x2005;" horiz-adv-x="457" />
<glyph unicode="&#x2006;" horiz-adv-x="304" />
<glyph unicode="&#x2007;" horiz-adv-x="304" />
<glyph unicode="&#x2008;" horiz-adv-x="228" />
<glyph unicode="&#x2009;" horiz-adv-x="365" />
<glyph unicode="&#x200a;" horiz-adv-x="101" />
<glyph unicode="&#x2010;" horiz-adv-x="768" d="M92 559v131h619v-131h-619z" />
<glyph unicode="&#x2011;" horiz-adv-x="768" d="M92 559v131h619v-131h-619z" />
<glyph unicode="&#x2012;" horiz-adv-x="768" d="M92 559v131h619v-131h-619z" />
<glyph unicode="&#x2013;" horiz-adv-x="1105" d="M92 498v131h869v-131h-869z" />
<glyph unicode="&#x2014;" horiz-adv-x="1738" d="M92 498v131h1514v-131h-1514z" />
<glyph unicode="&#x2018;" horiz-adv-x="419" d="M127 1087v160q0 180 89 233q34 21 89 9v-402h-178z" />
<glyph unicode="&#x2019;" horiz-adv-x="458" d="M166 1087v402h178v-160q0 -180 -89 -233q-34 -21 -89 -9z" />
<glyph unicode="&#x201a;" horiz-adv-x="403" d="M115 201h178v-160q0 -180 -89 -233q-34 -21 -89 -9v402z" />
<glyph unicode="&#x201c;" horiz-adv-x="759" d="M111 1087v160q0 179 89 233q33 21 89 9v-402h-178zM467 1087v160q0 180 89 233q34 21 89 9v-402h-178z" />
<glyph unicode="&#x201d;" horiz-adv-x="759" d="M111 1087v402h178v-160q0 -179 -89 -233q-34 -21 -89 -9zM467 1087v402h178v-160q0 -180 -89 -233q-34 -21 -89 -9z" />
<glyph unicode="&#x201e;" horiz-adv-x="741" d="M115 201h178v-160q0 -180 -89 -233q-34 -21 -89 -9v402zM469 201h178v-160q0 -180 -89 -233q-34 -21 -89 -9v402z" />
<glyph unicode="&#x2022;" horiz-adv-x="1024" d="M375 645q0 66 43 111t108 45q66 0 111 -45t45 -111t-45 -108.5t-111 -42.5t-108.5 42.5t-42.5 108.5z" />
<glyph unicode="&#x2026;" horiz-adv-x="1746" d="M190 90q0 53 34 89t87 36t89 -36t36 -89t-35.5 -87t-89.5 -34q-53 0 -87 34t-34 87zM743 90q0 53 34 89t87 36t89 -36t36 -89t-35.5 -87t-89.5 -34q-53 0 -87 34t-34 87zM1296 90q0 53 34 89t87 36t89 -36t36 -89t-36 -87t-89 -34t-87 34t-34 87z" />
<glyph unicode="&#x202f;" horiz-adv-x="365" />
<glyph unicode="&#x2039;" horiz-adv-x="1255" d="M403 528l443 426l90 -88l-295 -338l295 -338l-90 -88z" />
<glyph unicode="&#x203a;" horiz-adv-x="1255" d="M403 190l295 338l-295 338l91 88l442 -426l-442 -426z" />
<glyph unicode="&#x205f;" horiz-adv-x="457" />
<glyph unicode="&#x20ac;" horiz-adv-x="1208" d="M-16 510v133h145q-2 16 -2 35v92q0 25 4 51h-147v133h168q54 236 206 372q154 136 367 136q161 0 330 -63l-54 -135q-133 51 -247.5 51t-190.5 -42t-131 -120q-121 -172 -121 -436v-38q0 -20 2 -36h572v-133h-551q41 -182 147.5 -282.5t246.5 -100.5t273 53l54 -137 q-162 -63 -301.5 -63t-234.5 36.5t-169 106.5q-154 146 -203 387h-163zM393 821q45 133 172 133h320v-133h-492z" />
<glyph unicode="&#x2122;" horiz-adv-x="1490" d="M53 1409v82h490v-82h-189v-530h-112v530h-189zM627 879l67 612h152l149 -447l6 -28l7 28l151 447h141l68 -612h-100l-47 454v41l-166 -485h-107l-166 485l-45 -495h-110z" />
<glyph unicode="&#xe000;" horiz-adv-x="1054" d="M0 0v1055h1055v-1055h-1055z" />
</font>
</defs>
</svg>
