<?xml version="1.0" standalone="no"?>
<!DOCTYPE svg PUBLIC "-//W3C//DTD SVG 1.1//EN" "http://www.w3.org/Graphics/SVG/1.1/DTD/svg11.dtd" >
<svg xmlns="http://www.w3.org/2000/svg">
<metadata></metadata>
<defs>
<font id="OpenSansRegular" horiz-adv-x="1171" >
<font-face units-per-em="2048" ascent="1638" descent="-410" />
<missing-glyph horiz-adv-x="532" />
<glyph unicode="&#xfb01;" horiz-adv-x="1212" d="M29 967v75l196 60v61q0 404 353 404q87 0 204 -35l-43 -133q-96 31 -177 31q-171 0 -171 -263v-71h279v-129h-279v-967h-166v967h-196zM856 1393.5q0 56.5 28 83t69 26.5t70 -27t29 -83t-29 -83.5t-70 -27.5t-69 27.5t-28 84zM870 0v1096h166v-1096h-166z" />
<glyph unicode="&#xfb02;" horiz-adv-x="1212" d="M29 967v75l196 60v61q0 404 353 404q87 0 204 -35l-43 -133q-96 31 -177 31q-171 0 -171 -263v-71h279v-129h-279v-967h-166v967h-196zM870 0v1556h166v-1556h-166z" />
<glyph unicode="&#xfb03;" horiz-adv-x="1909" d="M29 967v75l196 60v61q0 404 353 404q87 0 204 -35l-43 -133q-96 31 -177 31q-171 0 -171 -263v-71h279v-129h-279v-967h-166v967h-196zM717 967v75l196 60v61q0 404 353 404q87 0 204 -35l-43 -133q-96 31 -177 31q-171 0 -171 -263v-71h279v-129h-279v-967h-166v967 h-196zM1551 1393.5q0 56.5 28 83t69 26.5t70 -27t29 -83t-29 -83.5t-70 -27.5t-69 27.5t-28 84zM1565 0v1096h166v-1096h-166z" />
<glyph unicode="&#xfb04;" horiz-adv-x="1909" d="M29 967v75l196 60v61q0 404 353 404q87 0 204 -35l-43 -133q-96 31 -177 31q-171 0 -171 -263v-71h279v-129h-279v-967h-166v967h-196zM717 967v75l196 60v61q0 404 353 404q87 0 204 -35l-43 -133q-96 31 -177 31q-171 0 -171 -263v-71h279v-129h-279v-967h-166v967 h-196zM1565 0v1556h166v-1556h-166z" />
<glyph horiz-adv-x="0" />
<glyph horiz-adv-x="2048" />
<glyph unicode="&#xd;" horiz-adv-x="1044" />
<glyph unicode=" "  horiz-adv-x="532" />
<glyph unicode="&#x09;" horiz-adv-x="532" />
<glyph unicode="&#xa0;" horiz-adv-x="532" />
<glyph unicode="!" horiz-adv-x="547" d="M152 106q0 136 120 136q58 0 89.5 -35t31.5 -100t-32 -100.5t-86.5 -35.5t-88.5 31.5t-34 103.5zM170 1462h207l-51 -1059h-105z" />
<glyph unicode="&#x22;" horiz-adv-x="821" d="M133 1462h186l-40 -528h-105zM502 1462h186l-41 -528h-104z" />
<glyph unicode="#" horiz-adv-x="1323" d="M51 430v129h287l68 340h-277v127h299l82 436h139l-82 -436h305l84 436h134l-84 -436h264v-127h-289l-66 -340h283v-129h-307l-84 -430h-137l84 430h-303l-82 -430h-136l80 430h-262zM475 559h303l66 340h-303z" />
<glyph unicode="$" d="M131 170v156q83 -37 191.5 -60.5t197.5 -23.5v440q-205 65 -287.5 151t-82.5 219.5t101.5 217.5t268.5 102v182h129v-180q184 -5 355 -74l-52 -131q-149 59 -303 70v-434q157 -50 235 -97.5t115 -109t37 -149.5q0 -136 -102 -224.5t-285 -111.5v-232h-129v223 q-246 0 -389 66zM319 1054q0 -73 45 -119t156 -87v387q-201 -32 -201 -181zM649 252q217 30 217 184q0 72 -44.5 116.5t-172.5 88.5v-389z" />
<glyph unicode="%" horiz-adv-x="1686" d="M104 1026q0 457 295 457q145 0 223 -119t78 -342.5t-76.5 -340t-220.5 -116.5t-221.5 119t-77.5 342zM242 1026q0 -170 37 -255t120 -85q164 0 164 339t-164 339q-83 0 -120 -84t-37 -254zM365 0l811 1462h147l-811 -1462h-147zM985 440q0 457 295 457 q142 0 221.5 -117.5t79.5 -342t-76.5 -341t-221.5 -116.5t-221.5 119t-76.5 341zM1122 440q0 -171 37 -255.5t121 -84.5q164 0 164 338t-164 338q-84 0 -121 -82.5t-37 -253.5z" />
<glyph unicode="&#x26;" horiz-adv-x="1495" d="M113 379q0 130 69.5 230t249.5 202q-85 95 -116 144q-66 107 -66 212q0 150 98 234t266.5 84t261.5 -83.5t93 -232.5q0 -107 -68 -197.5t-225 -183.5l407 -391q94 104 146 328h168q-68 -286 -205 -434l299 -291h-229l-185 178q-118 -106 -240 -152t-272 -46 q-215 0 -333.5 106t-118.5 293zM285 386.5q0 -120.5 77.5 -189t206.5 -68.5q241 0 400 154l-437 424q-111 -68 -157 -113q-90 -87 -90 -207.5zM414 1177q0 -75 36 -137.5t123 -150.5q129 75 179.5 138.5t50.5 143.5t-51.5 128.5t-139 48.5t-143 -48t-55.5 -123z" />
<glyph unicode="'" horiz-adv-x="453" d="M133 1462h186l-40 -528h-105z" />
<glyph unicode="(" horiz-adv-x="606" d="M82 563q0 263 77.5 494t223.5 405h162q-144 -193 -216.5 -424t-72.5 -473t74 -471t213 -418h-160q-147 170 -224 397t-77 490z" />
<glyph unicode=")" horiz-adv-x="606" d="M61 1462h162q147 -175 224 -406.5t77 -494.5t-77.5 -490t-223.5 -395h-160q139 188 213 417.5t74 471.5t-72.5 473t-216.5 424z" />
<glyph unicode="*" horiz-adv-x="1130" d="M86 1090l29 182l391 -111l-43 395h194l-43 -395l398 111l26 -182l-381 -31l248 -326l-172 -94l-176 362l-160 -362l-176 94l242 326z" />
<glyph unicode="+" d="M104 653v138h410v428h139v-428h412v-138h-412v-426h-139v426h-410z" />
<glyph unicode="," horiz-adv-x="502" d="M63 -264q75 288 105 502h182l15 -23q-58 -223 -177 -479h-125z" />
<glyph unicode="-" horiz-adv-x="659" d="M84 473v152h491v-152h-491z" />
<glyph unicode="." horiz-adv-x="545" d="M152 106q0 136 118 136q58 0 90.5 -34.5t32.5 -100.5t-33 -101t-87 -35t-87.5 31.5t-33.5 103.5z" />
<glyph unicode="/" horiz-adv-x="752" d="M20 0l545 1462h166l-545 -1462h-166z" />
<glyph unicode="0" d="M102 739q0 376 119 561t360 185t364.5 -193t123.5 -565.5t-119.5 -559.5t-360.5 -187t-364 191.5t-123 567.5zM270 733q0 -319 75 -464.5t240 -145.5t239.5 147.5t74.5 462.5t-74.5 461.5t-239.5 146.5t-240 -144.5t-75 -463.5z" />
<glyph unicode="1" d="M188 1163l387 299h140v-1462h-162v1042q0 130 8 246q-41 -41 -285 -239z" />
<glyph unicode="2" d="M100 0v143l385 387q176 178 232 254q112 152 112 286t-71 202.5t-179.5 68.5t-190 -30t-181.5 -109l-88 113q202 168 424 168t339 -105.5t117 -283.5q0 -139 -78 -275t-292 -344l-320 -313v-8h752v-154h-961z" />
<glyph unicode="3" d="M94 59v158q194 -96 406 -96q379 0 379 297q0 266 -418 266h-144v143h146q171 0 271 75.5t100 196t-73.5 181.5t-184.5 61t-196 -26t-194 -96l-84 112q193 152 455 152q213 0 331 -97.5t118 -252.5q0 -300 -301 -363v-8q346 -43 346 -348q0 -209 -145 -321.5t-397 -112.5 t-415 79z" />
<glyph unicode="4" d="M43 336v145l694 989h176v-983h217v-151h-217v-336h-159v336h-711zM209 487h545v486q0 143 10 323h-8q-48 -96 -90 -159z" />
<glyph unicode="5" d="M133 59v160q70 -45 174 -70.5t205 -25.5q176 0 273.5 83t97.5 240q0 306 -375 306q-95 0 -254 -29l-86 55l55 684h727v-153h-585l-37 -439q115 23 229 23q231 0 363.5 -114.5t132.5 -327.5t-144.5 -342t-395 -129t-380.5 79z" />
<glyph unicode="6" d="M117 625q0 858 663 858q113 0 178 -19v-143q-77 25 -176 25q-235 0 -359 -146.5t-136 -460.5h12q110 172 348 172q197 0 310.5 -119t113.5 -335t-124.5 -346.5t-344 -130.5t-352.5 170.5t-133 474.5zM287 489.5q0 -86.5 40 -175.5t113.5 -141t167.5 -52q142 0 220.5 89.5 t78.5 246.5t-73 240t-218 83q-90 0 -165 -37t-119.5 -102t-44.5 -151.5z" />
<glyph unicode="7" d="M94 1309v153h973v-133l-598 -1329h-184l606 1309h-797z" />
<glyph unicode="8" d="M104 373q0 251 306 391q-138 78 -198 168.5t-60 202.5q0 159 117.5 253.5t316 94.5t315.5 -93t117 -257q0 -219 -281 -359q178 -85 253 -178.5t75 -216.5q0 -182 -127 -290.5t-354.5 -108.5t-353.5 102.5t-126 290.5zM268 363q0 -114 83.5 -181t233.5 -67t233 70 t83 179.5t-78 185t-272 146.5q-149 -64 -216 -141.5t-67 -191.5zM315 1132q0 -96 59 -162t218 -132q143 60 202.5 129t59.5 165.5t-72.5 156t-198.5 59.5t-197 -60t-71 -156z" />
<glyph unicode="9" d="M106 1001q0 218 127.5 350t335.5 132q149 0 260.5 -76.5t171.5 -223t60 -345.5q0 -858 -664 -858q-116 0 -184 20v143q80 -26 182 -26q240 0 362.5 148.5t133.5 455.5h-12q-113 -170 -351 -170q-194 0 -308 116t-114 334zM270 1003q0 -319 291 -319q91 0 167.5 37 t120.5 101t44 151.5t-41 176.5t-114.5 140t-168.5 51q-143 0 -221 -92t-78 -246z" />
<glyph unicode=":" horiz-adv-x="545" d="M152 106q0 136 118 136q58 0 90.5 -34.5t32.5 -100.5t-33 -101t-87 -35t-87.5 31.5t-33.5 103.5zM152 989q0 135 118 135q123 0 123 -135q0 -65 -33 -100t-87 -35t-87.5 31.5t-33.5 103.5z" />
<glyph unicode=";" horiz-adv-x="545" d="M63 -264q75 288 105 502h182l15 -23q-58 -223 -177 -479h-125zM147 989q0 135 121 135t121 -135q0 -65 -33 -100t-90 -35q-119 0 -119 135z" />
<glyph unicode="&#x3c;" d="M104 664v98l961 479v-149l-782 -371l782 -328v-151z" />
<glyph unicode="=" d="M119 449v137h930v-137h-930zM119 858v137h930v-137h-930z" />
<glyph unicode="&#x3e;" d="M104 242v151l783 326l-783 373v149l961 -479v-98z" />
<glyph unicode="?" horiz-adv-x="879" d="M27 1384q189 99 387.5 99t304.5 -94t106 -265q0 -133 -77 -234q-38 -49 -151.5 -147t-146 -155t-32.5 -152v-33h-129v54q0 117 36 192.5t153 175t152.5 157.5t35.5 140q0 213 -270 213q-140 0 -310 -86zM240 106q0 136 120 136q58 0 89.5 -35t31.5 -100t-32 -100.5 t-86.5 -35.5t-88.5 31.5t-34 103.5z" />
<glyph unicode="@" horiz-adv-x="1841" d="M121 571q0 260 107 463t305 314.5t433.5 111.5t403 -90.5t259 -257t91.5 -383.5q0 -142 -44 -260t-124 -183t-175 -65t-154 52t-70 133h-8q-40 -87 -114.5 -136t-176.5 -49q-150 0 -234.5 102.5t-84.5 292.5t118 317.5t295 127.5t324 -47l-25 -470v-22q0 -178 133 -178 q91 0 148 107.5t57 284t-74 312.5t-210.5 209.5t-336.5 73.5t-365 -92.5t-252 -264t-87 -396.5q0 -305 161 -469t464 -164q210 0 436 86v-133q-192 -84 -436 -84q-363 0 -563.5 199.5t-200.5 557.5zM686 598q0 -254 195 -254q207 0 225 313l14 261q-72 20 -157 20 q-130 0 -203.5 -90t-73.5 -250z" />
<glyph unicode="A" horiz-adv-x="1296" d="M0 0l578 1468h143l575 -1468h-176l-182 465h-586l-180 -465h-172zM412 618h473l-170 453q-33 86 -68 211q-22 -96 -63 -211z" />
<glyph unicode="B" horiz-adv-x="1327" d="M201 0v1462h413q291 0 421 -87t130 -275q0 -130 -72.5 -214.5t-211.5 -109.5v-10q333 -57 333 -350q0 -196 -132.5 -306t-370.5 -110h-510zM371 145h305q177 0 266.5 68.5t89.5 209.5t-91.5 205t-278.5 64h-291v-547zM371 836h280q180 0 259 56.5t79 185t-88 183 t-280 54.5h-250v-479z" />
<glyph unicode="C" horiz-adv-x="1292" d="M125 733q0 226 84.5 396t244 262t382.5 92t395 -84l-72 -146q-166 78 -332 78q-241 0 -380.5 -160.5t-139.5 -443.5t134.5 -439.5t383.5 -156.5q153 0 349 55v-149q-152 -57 -375 -57q-323 0 -498.5 196t-175.5 557z" />
<glyph unicode="D" horiz-adv-x="1493" d="M201 0v1462h448q341 0 530 -189t189 -539.5t-196.5 -542t-565.5 -191.5h-405zM371 147h207q304 0 457 149.5t153 439.5q0 579 -570 579h-247v-1168z" />
<glyph unicode="E" horiz-adv-x="1139" d="M201 0v1462h815v-151h-645v-471h606v-150h-606v-538h645v-152h-815z" />
<glyph unicode="F" horiz-adv-x="1057" d="M201 0v1462h815v-151h-645v-535h606v-151h-606v-625h-170z" />
<glyph unicode="G" horiz-adv-x="1491" d="M125 731q0 228 91.5 399.5t263.5 262t404.5 90.5t434.5 -86l-66 -150q-198 84 -381 84q-267 0 -417 -159t-150 -448t144.5 -442t424.5 -153q152 0 297 35v450h-327v152h497v-711q-235 -75 -514 -75q-332 0 -517 197.5t-185 553.5z" />
<glyph unicode="H" horiz-adv-x="1511" d="M201 0v1462h170v-622h770v622h170v-1462h-170v688h-770v-688h-170z" />
<glyph unicode="I" horiz-adv-x="571" d="M201 0v1462h170v-1462h-170z" />
<glyph unicode="J" horiz-adv-x="547" d="M-160 -213q71 -20 159 -20t139.5 60t51.5 173v1462h170v-1448q0 -190 -96 -294.5t-276 -104.5q-94 0 -148 27v145z" />
<glyph unicode="K" horiz-adv-x="1257" d="M201 0v1462h170v-725l663 725h201l-588 -635l610 -827h-200l-533 709l-153 -136v-573h-170z" />
<glyph unicode="L" horiz-adv-x="1063" d="M201 0v1462h170v-1308h645v-154h-815z" />
<glyph unicode="M" horiz-adv-x="1849" d="M201 0v1462h256l463 -1206h8l467 1206h254v-1462h-170v942q0 162 14 352h-8l-500 -1294h-137l-496 1296h-8q14 -154 14 -366v-930h-157z" />
<glyph unicode="N" horiz-adv-x="1544" d="M201 0v1462h192l797 -1222h8q-15 202 -15 330q0 28 1 53v839h159v-1462h-194l-799 1227h-8q16 -216 16 -396v-831h-157z" />
<glyph unicode="O" horiz-adv-x="1595" d="M125 733.5q0 358.5 176 555t495.5 196.5t496.5 -200t177 -551.5t-177.5 -552.5t-497 -201t-495 197.5t-175.5 556zM305 731q0 -295 126.5 -448.5t368.5 -153.5t366 153t124 449.5t-123.5 449t-366 152.5t-369 -153.5t-126.5 -448.5z" />
<glyph unicode="P" horiz-adv-x="1233" d="M201 0v1462h379q548 0 548 -426q0 -222 -151.5 -341.5t-433.5 -119.5h-172v-575h-170zM371 721h153q226 0 327 73t101 226t-95 224t-296 71h-190v-594z" />
<glyph unicode="Q" horiz-adv-x="1595" d="M125 733.5q0 358.5 176 555t495.5 196.5t496.5 -200t177 -552q0 -281 -113 -467t-319 -252l348 -362h-247l-285 330l-55 -2q-323 0 -498.5 197.5t-175.5 556zM305 731q0 -295 126.5 -448.5t368.5 -153.5t366 153t124 449.5t-123.5 449t-366 152.5t-369 -153.5 t-126.5 -448.5z" />
<glyph unicode="R" horiz-adv-x="1266" d="M201 0v1462h401q269 0 397.5 -103t128.5 -310q0 -290 -294 -392l397 -657h-201l-354 608h-305v-608h-170zM371 754h233q180 0 264 71.5t84 215.5t-85.5 208t-274.5 64h-221v-559z" />
<glyph unicode="S" horiz-adv-x="1124" d="M106 47v164q194 -82 385 -82q363 0 363 244q0 76 -30.5 124.5t-102 89.5t-246.5 103.5t-262.5 162.5t-87.5 265t127 265t340.5 100t396.5 -80l-53 -148q-181 76 -334 76t-229 -58t-76 -147.5t28 -138t94.5 -89t203.5 -89.5q230 -82 316.5 -176t86.5 -244 q0 -193 -140 -301t-390 -108t-390 67z" />
<glyph unicode="T" horiz-adv-x="1133" d="M18 1311v151h1096v-151h-463v-1311h-170v1311h-463z" />
<glyph unicode="U" horiz-adv-x="1491" d="M186 520v942h170v-954q0 -183 100 -281t289.5 -98t289.5 98.5t100 282.5v952h170v-946q0 -250 -151 -393t-415 -143t-408.5 144t-144.5 396z" />
<glyph unicode="V" horiz-adv-x="1219" d="M0 1462h180l336 -946q58 -163 92 -317q36 162 94 323l334 940h183l-527 -1462h-168z" />
<glyph unicode="W" horiz-adv-x="1896" d="M27 1462h180l231 -903q48 -190 70 -344q27 183 80 358l262 889h180l275 -897q48 -155 81 -350q19 142 72 346l230 901h180l-391 -1462h-168l-295 979q-21 65 -47 164t-27 119q-22 -132 -70 -289l-286 -973h-168z" />
<glyph unicode="X" horiz-adv-x="1182" d="M8 0l486 764l-453 698h188l363 -579l366 579h181l-453 -692l488 -770h-193l-393 643l-400 -643h-180z" />
<glyph unicode="Y" horiz-adv-x="1147" d="M0 1462h186l387 -731l390 731h184l-488 -895v-567h-172v559z" />
<glyph unicode="Z" horiz-adv-x="1169" d="M82 0v133l776 1176h-752v153h959v-133l-776 -1175h798v-154h-1005z" />
<glyph unicode="[" horiz-adv-x="674" d="M166 -324v1786h457v-141h-289v-1503h289v-142h-457z" />
<glyph unicode="\" horiz-adv-x="752" d="M23 1462h163l547 -1462h-166z" />
<glyph unicode="]" horiz-adv-x="674" d="M51 -182h289v1503h-289v141h457v-1786h-457v142z" />
<glyph unicode="^" horiz-adv-x="1110" d="M49 551l434 922h99l477 -922h-152l-372 745l-334 -745h-152z" />
<glyph unicode="_" horiz-adv-x="918" d="M-4 -184h926v-131h-926v131z" />
<glyph unicode="`" horiz-adv-x="1182" d="M393 1548v21h203q32 -69 89 -159.5t101 -143.5v-25h-110q-65 52 -154 148t-129 159z" />
<glyph unicode="a" horiz-adv-x="1139" d="M94 303q0 332 531 348l186 6v68q0 129 -55.5 190.5t-185 61.5t-302.5 -84l-51 127q173 94 370 94t291.5 -87t94.5 -279v-748h-123l-33 156h-8q-82 -103 -163.5 -139.5t-224 -36.5t-235 84t-92.5 239zM268 314q0 -197 207 -197q155 0 243.5 85t88.5 238v99l-166 -7 q-198 -7 -285.5 -61.5t-87.5 -156.5z" />
<glyph unicode="b" horiz-adv-x="1255" d="M176 0v1556h166v-378q0 -127 -8 -228h8q116 164 338 164t341.5 -147.5t119.5 -417.5t-120.5 -419.5t-340.5 -149.5t-338 161h-12l-35 -141h-119zM342 549q0 -231 77 -330.5t247 -99.5q303 0 303 432q0 214 -75 319t-238.5 105t-238.5 -97.5t-75 -328.5z" />
<glyph unicode="c" horiz-adv-x="975" d="M115 544.5q0 271.5 132.5 421.5t377.5 150q79 0 158 -17t124 -40l-51 -141q-127 51 -235 51q-334 0 -334 -426q0 -202 81.5 -310t230 -108t292.5 59v-147q-110 -57 -277 -57q-238 0 -368.5 146.5t-130.5 418z" />
<glyph unicode="d" horiz-adv-x="1255" d="M115 545q0 271 120 421t338.5 150t337.5 -162h13l-7 79l-4 77v446h166v-1556h-135l-22 147h-9q-115 -167 -337 -167t-341.5 147t-119.5 418zM287 543q0 -424 313 -424q160 0 236.5 92.5t76.5 298.5v35q0 233 -77.5 332.5t-235.5 99.5t-235.5 -113.5t-77.5 -320.5z" />
<glyph unicode="e" horiz-adv-x="1149" d="M115 540q0 264 130.5 420t343.5 156t333 -135.5t120 -357.5v-105h-755q5 -193 97.5 -293t265 -100t345.5 74v-148q-88 -38 -166.5 -54.5t-189.5 -16.5q-243 0 -383.5 148t-140.5 412zM291 653h573q0 157 -70 240.5t-201 83.5t-209.5 -86t-92.5 -238z" />
<glyph unicode="f" horiz-adv-x="694" d="M29 967v75l196 60v61q0 404 353 404q87 0 204 -35l-43 -133q-96 31 -177 31q-171 0 -171 -263v-71h279v-129h-279v-967h-166v967h-196z" />
<glyph unicode="g" horiz-adv-x="1122" d="M39 -186q0 100 64 173t180 99q-42 19 -70.5 59t-28.5 97q0 107 133 188q-85 35 -138.5 119t-53.5 192q0 180 108 277.5t306 97.5q86 0 155 -20h379v-105l-203 -24q72 -90 72 -235t-110 -241t-302 -96q-49 0 -92 8q-106 -56 -106 -141q0 -45 37 -66.5t127 -21.5h194 q178 0 273.5 -75t95.5 -218q0 -182 -146 -277.5t-426 -95.5q-215 0 -331.5 80t-116.5 226zM199 -178q0 -187 290 -187q209 0 309.5 62.5t100.5 160.5t-55 132.5t-207 34.5h-199q-113 0 -176 -54t-63 -149zM289 749.5q0 -119.5 65 -178.5t181 -59q243 0 243 236 q0 247 -246 247q-117 0 -180 -63t-63 -182.5z" />
<glyph unicode="h" horiz-adv-x="1257" d="M176 0v1556h166v-471q0 -85 -8 -141h10q49 79 139.5 124.5t206.5 45.5q201 0 301.5 -95.5t100.5 -303.5v-715h-166v709q0 134 -61 200t-191 66q-173 0 -252.5 -94t-79.5 -308v-573h-166z" />
<glyph unicode="i" horiz-adv-x="518" d="M162 1393.5q0 56.5 28 83t69 26.5t70 -27t29 -83t-29 -83.5t-70 -27.5t-69 27.5t-28 84zM176 0v1096h166v-1096h-166z" />
<glyph unicode="j" horiz-adv-x="518" d="M-111 -332q69 -20 141 -20q146 0 146 172v1276h166v-1264q0 -324 -299 -324q-95 0 -154 25v135zM162 1393.5q0 56.5 28 83t69 26.5t70 -27t29 -83t-29 -83.5t-70 -27.5t-69 27.5t-28 84z" />
<glyph unicode="k" horiz-adv-x="1075" d="M176 0v1556h164v-825q0 -55 -8 -170h8q43 61 131 160l354 375h197l-444 -467l475 -629h-201l-387 518l-125 -108v-410h-164z" />
<glyph unicode="l" horiz-adv-x="518" d="M176 0v1556h166v-1556h-166z" />
<glyph unicode="m" horiz-adv-x="1905" d="M176 0v1096h135l27 -150h8q47 80 132.5 125t191.5 45q257 0 336 -186h8q49 86 142 136t212 50q186 0 278.5 -95.5t92.5 -305.5v-715h-166v713q0 262 -230 262q-155 0 -229 -89t-74 -274v-612h-166v713q0 131 -56 196.5t-175 65.5q-156 0 -228.5 -93.5t-72.5 -306.5v-575 h-166z" />
<glyph unicode="n" horiz-adv-x="1257" d="M176 0v1096h135l27 -150h8q51 81 143 125.5t205 44.5q198 0 298 -95.5t100 -305.5v-715h-166v709q0 134 -61 200t-191 66q-172 0 -252 -93t-80 -307v-575h-166z" />
<glyph unicode="o" horiz-adv-x="1237" d="M115 549q0 268 134 417.5t368 149.5t369.5 -153t135.5 -417.5t-135 -415t-373 -150.5q-147 0 -261 69t-176 198t-62 302zM287 549q0 -210 84 -320t247 -110t247.5 109.5t84.5 319.5t-84.5 318.5t-249.5 108.5q-329 0 -329 -426z" />
<glyph unicode="p" horiz-adv-x="1255" d="M176 -492v1588h135l23 -150h8q121 170 341.5 170t339 -149t118.5 -418.5t-120.5 -419t-340.5 -149.5t-338 161h-12q12 -96 12 -182v-451h-166zM342 549q0 -231 77 -330.5t233 -99.5t236.5 115t80.5 318.5t-80.5 313t-237.5 109.5t-232 -93t-77 -296v-37z" />
<glyph unicode="q" horiz-adv-x="1255" d="M115 546q0 268 120 419t339.5 151t340.5 -170h9l24 150h131v-1588h-166v469q0 100 11 170h-13q-115 -167 -336.5 -167t-340.5 149t-119 417zM287 543q0 -424 311 -424q158 0 234 89t81 300v37q0 230 -78 331t-235.5 101t-235 -113.5t-77.5 -320.5z" />
<glyph unicode="r" horiz-adv-x="836" d="M176 0v1096h137l19 -203h8q127 223 336 223q73 0 131 -12l-23 -154q-68 15 -120 15q-133 0 -227.5 -108t-94.5 -269v-588h-166z" />
<glyph unicode="s" horiz-adv-x="977" d="M106 823.5q0 137.5 109 215t292.5 77.5t352.5 -72l-59 -135q-165 68 -291 68t-186 -37t-60 -91.5t22.5 -85.5t72.5 -59t218.5 -90t237 -134t68.5 -181q0 -153 -114 -236t-326 -83t-334 69v154q170 -86 344 -86q270 0 270 168q0 64 -55.5 109.5t-212.5 105t-221 102.5 q-128 84 -128 221.5z" />
<glyph unicode="t" horiz-adv-x="723" d="M31 967v80l157 69l70 234h96v-254h318v-129h-318v-645q0 -99 47 -152t128.5 -53t150.5 20v-127q-62 -30 -174 -30q-318 0 -318 335v652h-157z" />
<glyph unicode="u" horiz-adv-x="1257" d="M164 379v717h168v-711q0 -134 61 -200t191 -66q172 0 251.5 94t79.5 307v576h166v-1096h-137l-24 147h-9q-51 -81 -141.5 -124t-206.5 -43q-200 0 -299.5 95t-99.5 304z" />
<glyph unicode="v" horiz-adv-x="1026" d="M0 1096h178l236 -650q80 -228 94 -296h8q17 80 332 946h178l-416 -1096h-194z" />
<glyph unicode="w" horiz-adv-x="1593" d="M23 1096h174q106 -413 161.5 -629t63.5 -291h8q27 142 78 291l201 629h180l196 -629q56 -172 76 -289h8q4 36 21.5 111t208.5 807h172l-303 -1096h-197l-201 643q-19 59 -71 268h-8q-40 -175 -70 -270l-207 -641h-192z" />
<glyph unicode="x" horiz-adv-x="1073" d="M39 0l401 561l-381 535h189l289 -420l288 420h187l-381 -535l401 -561h-188l-307 444l-310 -444h-188z" />
<glyph unicode="y" horiz-adv-x="1032" d="M2 1096h178l240 -625q79 -214 98 -309h8q28 110 326 934h178l-471 -1248q-70 -185 -163.5 -262.5t-229.5 -77.5q-76 0 -150 17v133q55 -12 123 -12q171 0 244 192l61 156z" />
<glyph unicode="z" horiz-adv-x="958" d="M82 0v113l598 854h-561v129h743v-129l-590 -838h605v-129h-795z" />
<glyph unicode="{" horiz-adv-x="776" d="M61 498v141q130 2 188 48t58 142v306q0 155 108 241t290 86v-139q-230 -6 -230 -199v-295q0 -215 -223 -254v-12q223 -39 223 -254v-297q0 -102 58.5 -148t171.5 -48v-140q-190 2 -294 87t-104 239v303q0 104 -63 148.5t-183 44.5z" />
<glyph unicode="|" horiz-adv-x="1128" d="M494 -496v2052h141v-2052h-141z" />
<glyph unicode="}" horiz-adv-x="776" d="M72 -184q111 2 169 48t58 148v297q0 114 55 174t168 80v12q-223 39 -223 254v295q0 193 -227 199v139q184 0 289.5 -87t105.5 -240v-306q0 -97 59 -142.5t189 -47.5v-141q-122 0 -185 -44.5t-63 -148.5v-303q0 -153 -102.5 -238.5t-292.5 -87.5v140z" />
<glyph unicode="~" d="M104 592v151q100 109 244 109q68 0 124.5 -14t133.5 -47q141 -60 209 -60q135 0 250 121v-150q-102 -110 -244 -110q-72 0 -135 16.5t-164.5 60.5t-169.5 44q-127 0 -248 -121z" />
<glyph unicode="&#xa1;" horiz-adv-x="547" d="M152 983q0 63 31.5 99t85.5 36t89 -32t35 -103q0 -135 -120.5 -135t-120.5 135zM168 -373l51 1057h105l51 -1057h-207z" />
<glyph unicode="&#xa2;" d="M190 741q0 508 396 570v172h135v-164q153 -6 266 -59l-49 -140q-133 51 -242 51q-172 0 -253 -105.5t-81 -320t79.5 -316t233.5 -101.5t296 59v-147q-105 -54 -252 -60v-200h-133v206q-203 32 -299.5 168.5t-96.5 386.5z" />
<glyph unicode="&#xa3;" d="M63 0v141q205 47 205 291v223h-198v127h198v316q0 178 112 280.5t302 102.5t360 -84l-61 -133q-154 77 -287 77t-195.5 -62t-62.5 -202v-295h422v-127h-422v-221q0 -100 -32.5 -168t-106.5 -112h795v-154h-1029z" />
<glyph unicode="&#xa4;" d="M123 1092l94 92l135 -133q104 73 232.5 73t230.5 -73l137 133l95 -92l-134 -138q74 -113 74 -237.5t-74 -227.5l131 -135l-92 -92l-137 133q-102 -71 -232.5 -71t-230.5 73l-135 -133l-92 92l133 136q-74 107 -74 230t74 230zM313 723q0 -112 78.5 -192t194.5 -80 t195 79.5t79 193t-80 194.5t-195 81t-193.5 -82t-78.5 -194z" />
<glyph unicode="&#xa5;" d="M31 1462h178l375 -727l379 727h174l-416 -770h262v-127h-317v-170h317v-127h-317v-268h-164v268h-316v127h316v170h-316v127h256z" />
<glyph unicode="&#xa6;" horiz-adv-x="1128" d="M494 281h141v-777h-141v777zM494 780v776h141v-776h-141z" />
<glyph unicode="&#xa7;" horiz-adv-x="1057" d="M123 57v148q173 -82 330 -82q299 0 299 147q0 46 -24 75q-45 55 -217 118.5t-239 108.5q-133 89 -133 237q0 86 43 154.5t121 105.5q-74 40 -116 95.5t-42 140.5q0 121 103.5 190.5t300.5 69.5q181 0 350 -68l-53 -131q-166 66 -309 66q-232 0 -232 -123q0 -60 61.5 -102 t231.5 -103.5t245 -137t75 -174.5q0 -194 -156 -280q153 -81 153 -224t-117 -219.5t-332 -76.5t-343 65zM285 821.5q0 -69.5 66 -122t233 -113.5l49 -19q137 80 137 191q0 83 -73.5 139t-258.5 113q-68 -19 -110.5 -69t-42.5 -119.5z" />
<glyph unicode="&#xa8;" horiz-adv-x="1182" d="M309 1394q0 51 26.5 74t64 23t65 -23t27.5 -74t-27.5 -75.5t-65 -24.5t-64 24.5t-26.5 75.5zM690 1394q0 51 26.5 74t63.5 23t64.5 -23t27.5 -74t-27.5 -75.5t-64.5 -24.5t-63.5 24.5t-26.5 75.5z" />
<glyph unicode="&#xa9;" horiz-adv-x="1704" d="M100 732q0 199 100 374t275 276t376 101t376 -100t276 -275t101 -374.5t-97 -372.5t-272 -277t-382.5 -104t-382.5 103.5t-272.5 276.5t-97.5 372zM205 732.5q0 -174.5 87 -325t237.5 -237t323.5 -86.5t322 87t236.5 235.5t87.5 323.5t-87 324t-235.5 236.5t-323.5 87.5 t-324 -87t-236.5 -235.5t-87.5 -323zM481 727.5q0 212.5 110.5 335.5t301.5 123q128 0 246 -60l-58 -118q-108 51 -188 51q-125 0 -192.5 -87t-67.5 -248q0 -323 258 -323q86 0 211 45v-124q-115 -48 -219 -48q-194 0 -298 120.5t-104 333z" />
<glyph unicode="&#xaa;" horiz-adv-x="725" d="M70 989q0 102 77 154.5t242 58.5l117 4v39q0 133 -148 133q-100 0 -204 -51l-43 96q114 56 245.5 56t200 -52.5t68.5 -173.5v-452h-93l-24 84q-92 -97 -232 -97q-95 0 -150.5 49.5t-55.5 151.5zM193 989q0 -100 112 -100q201 0 201 180v49l-98 -4q-112 -4 -163.5 -32.5 t-51.5 -92.5z" />
<glyph unicode="&#xab;" horiz-adv-x="1018" d="M82 524v27l342 407l119 -69l-289 -350l289 -351l-119 -71zM477 524v27l344 407l117 -69l-287 -350l287 -351l-117 -71z" />
<glyph unicode="&#xac;" d="M104 653v138h961v-527h-137v389h-824z" />
<glyph unicode="&#xad;" horiz-adv-x="659" d="M84 473v152h491v-152h-491z" />
<glyph unicode="&#xae;" horiz-adv-x="1704" d="M100 732q0 199 100 374t275 276t376 101t376 -100t276 -275t101 -374.5t-97 -372.5t-272 -277t-382.5 -104t-382.5 103.5t-272.5 276.5t-97.5 372zM205 732.5q0 -174.5 87 -325t237.5 -237t323.5 -86.5t322 87t236.5 235.5t87.5 323.5t-87 324t-235.5 236.5t-323.5 87.5 t-324 -87t-236.5 -235.5t-87.5 -323zM575 285v891h261q166 0 243.5 -65t77.5 -198q0 -80 -42.5 -141.5t-119.5 -91.5l238 -395h-168l-207 354h-135v-354h-148zM723 762h108q80 0 128.5 41.5t48.5 111t-43 102t-136 32.5h-106v-287z" />
<glyph unicode="&#xaf;" horiz-adv-x="1024" d="M-6 1556v127h1036v-127h-1036z" />
<glyph unicode="&#xb0;" horiz-adv-x="877" d="M127 1170.5q0 130.5 90.5 221.5t220.5 91t221 -90.5t91 -221.5q0 -84 -41 -155.5t-114 -113.5t-157 -42q-130 0 -220.5 90t-90.5 220.5zM242 1171.5q0 -82.5 58.5 -139.5t139 -57t138 56.5t57.5 140t-56.5 140t-139 56.5t-140 -57t-57.5 -139.5z" />
<glyph unicode="&#xb1;" d="M104 1v138h961v-138h-961zM104 653v138h410v428h139v-428h412v-138h-412v-426h-139v426h-410z" />
<glyph unicode="&#xb2;" horiz-adv-x="711" d="M49 586v104l236 230q158 152 187 221q17 38 17 99t-40 95.5t-103 34.5q-98 0 -219 -88l-66 88q131 111 273 111t215.5 -65t73.5 -161t-44.5 -171.5t-191.5 -213.5l-174 -165h440v-119h-604z" />
<glyph unicode="&#xb3;" horiz-adv-x="711" d="M33 625v123q147 -68 270 -68q211 0 211 162q0 145 -231 145h-117v107h119q103 0 152.5 39.5t49.5 104t-40 98.5t-107 34q-109 0 -234 -78l-69 90q139 99 286 99t225.5 -59.5t78.5 -153.5q0 -168 -150 -219q176 -47 176 -209q0 -128 -92 -199.5t-252 -71.5t-276 56z" />
<glyph unicode="&#xb4;" horiz-adv-x="1182" d="M393 1241v25q115 148 191 303h202v-21q-44 -65 -131 -160t-151 -147h-111z" />
<glyph unicode="&#xb5;" horiz-adv-x="1268" d="M176 -492v1588h166v-715q0 -262 254 -262q171 0 250.5 94.5t79.5 306.5v576h166v-1096h-136l-26 147h-10q-111 -167 -340 -167q-150 0 -238 92h-10q10 -84 10 -244v-320h-166z" />
<glyph unicode="&#xb6;" horiz-adv-x="1341" d="M113 1046.5q0 255.5 109 382.5t341 127h557v-1816h-114v1712h-213v-1712h-115v819q-62 -18 -146 -18q-216 0 -317.5 125t-101.5 380.5z" />
<glyph unicode="&#xb7;" horiz-adv-x="545" d="M152 720q0 138 118 138q58 0 90.5 -34.5t32.5 -100t-33 -100.5t-87 -35t-87.5 31.5t-33.5 100.5z" />
<glyph unicode="&#xb8;" horiz-adv-x="465" d="M37 -377q45 -8 114 -8t109.5 20t40.5 68.5t-39.5 75t-148.5 43.5l88 178h110l-55 -115q180 -39 180 -174q0 -97 -76.5 -150t-226.5 -53q-51 0 -96 9v106z" />
<glyph unicode="&#xb9;" horiz-adv-x="711" d="M76 1280l262 182h143v-876h-133v579q0 91 6 181q-46 -46 -211 -162z" />
<glyph unicode="&#xba;" horiz-adv-x="768" d="M66 1136q0 162 84 252.5t235.5 90.5t234 -91t82.5 -254t-85.5 -254.5t-233.5 -91.5t-232.5 93t-84.5 255zM188 1135.5q0 -122.5 45.5 -183.5t150 -61t150.5 61t46 183.5t-46 181.5t-150 59t-150 -59t-46 -181.5z" />
<glyph unicode="&#xbb;" horiz-adv-x="1018" d="M80 188l287 351l-287 350l117 69l344 -407v-27l-344 -407zM475 188l287 351l-287 350l117 69l344 -407v-27l-344 -407z" />
<glyph unicode="&#xbc;" horiz-adv-x="1597" d="M75 1280l262 182h143v-876h-133v579q0 91 6 181q-46 -46 -211 -162zM252 0l903 1462h143l-903 -1462h-143zM817 203v101l408 579h139v-563h125v-117h-125v-202h-145v202h-402zM957 320h262v195q0 134 6 209q-8 -20 -34 -58l-40 -61q-15 -22 -26 -39z" />
<glyph unicode="&#xbd;" horiz-adv-x="1597" d="M46 1280l262 182h143v-876h-133v579q0 91 6 181q-46 -46 -211 -162zM184 0l903 1462h143l-903 -1462h-143zM895 1v104l236 230q158 152 187 221q17 38 17 99t-40 95.5t-103 34.5q-98 0 -219 -88l-66 88q131 111 273 111t215.5 -65t73.5 -161t-44.5 -171.5t-191.5 -213.5 l-174 -165h440v-119h-604z" />
<glyph unicode="&#xbe;" horiz-adv-x="1597" d="M26 625v123q147 -68 270 -68q211 0 211 162q0 145 -231 145h-117v107h119q103 0 152.5 39.5t49.5 104t-40 98.5t-107 34q-109 0 -234 -78l-69 90q139 99 286 99t225.5 -59.5t78.5 -153.5q0 -168 -150 -219q176 -47 176 -209q0 -128 -92 -199.5t-252 -71.5t-276 56zM344 0 l903 1462h143l-903 -1462h-143zM897 203v101l408 579h139v-563h125v-117h-125v-202h-145v202h-402zM1037 320h262v195q0 134 6 209q-8 -20 -34 -58l-40 -61q-15 -22 -26 -39z" />
<glyph unicode="&#xbf;" horiz-adv-x="879" d="M51 -37q0 126 67 219q32 45 76.5 86t122 108.5t110 125.5t32.5 151v31h131v-51q0 -122 -37.5 -196t-146.5 -169t-140 -132q-55 -69 -55 -170t66 -157.5t203 -56.5t313 86l59 -135q-197 -96 -391 -96t-302 93t-108 263zM397 983q0 64 33 99.5t86 35.5t88 -32t35 -103 q0 -135 -121 -135t-121 135z" />
<glyph unicode="&#xc0;" horiz-adv-x="1296" d="M0 0l578 1468h143l575 -1468h-176l-182 465h-586l-180 -465h-172zM331 1886v21h203q32 -69 89 -159.5t101 -143.5v-25h-110q-65 52 -154 148t-129 159zM412 618h473l-170 453q-33 86 -68 211q-22 -96 -63 -211z" />
<glyph unicode="&#xc1;" horiz-adv-x="1296" d="M0 0l578 1468h143l575 -1468h-176l-182 465h-586l-180 -465h-172zM412 618h473l-170 453q-33 86 -68 211q-22 -96 -63 -211zM526 1579v25q115 148 191 303h202v-21q-44 -65 -131 -160t-151 -147h-111z" />
<glyph unicode="&#xc2;" horiz-adv-x="1296" d="M0 0l578 1468h143l575 -1468h-176l-182 465h-586l-180 -465h-172zM303 1579v23q203 217 252 305h166q45 -85 256 -305v-23h-119q-88 55 -221 186q-136 -134 -219 -186h-115zM412 618h473l-170 453q-33 86 -68 211q-22 -96 -63 -211z" />
<glyph unicode="&#xc3;" horiz-adv-x="1296" d="M0 0l578 1468h143l575 -1468h-176l-182 465h-586l-180 -465h-172zM268 1579q13 121 70.5 189.5t148.5 68.5q68 0 171 -59q39 -23 75 -41.5t76.5 -18.5t64.5 29.5t39 91.5h99q-13 -121 -69.5 -189.5t-150.5 -68.5q-60 0 -164 59q-40 23 -76.5 41.5t-78.5 18.5 q-79 0 -107 -121h-98zM412 618h473l-170 453q-33 86 -68 211q-22 -96 -63 -211z" />
<glyph unicode="&#xc4;" horiz-adv-x="1296" d="M0 0l578 1468h143l575 -1468h-176l-182 465h-586l-180 -465h-172zM364 1732q0 51 26.5 74t64 23t65 -23t27.5 -74t-27.5 -75.5t-65 -24.5t-64 24.5t-26.5 75.5zM412 618h473l-170 453q-33 86 -68 211q-22 -96 -63 -211zM745 1732q0 51 26.5 74t63.5 23t64.5 -23t27.5 -74 t-27.5 -75.5t-64.5 -24.5t-63.5 24.5t-26.5 75.5z" />
<glyph unicode="&#xc5;" horiz-adv-x="1296" d="M0 0l578 1468h143l575 -1468h-176l-182 465h-586l-180 -465h-172zM412 618h473l-170 453q-33 86 -68 211q-22 -96 -63 -211zM424 1585q0 98 60.5 155.5t161 57.5t162.5 -59.5t62 -154.5t-61.5 -154.5t-163 -59.5t-161.5 58.5t-60 156.5zM528 1585q0 -56 30 -86.5 t84.5 -30.5t87 30.5t32.5 86.5t-33 86.5t-84 30.5t-84 -30.5t-33 -86.5z" />
<glyph unicode="&#xc6;" horiz-adv-x="1788" d="M-2 0l698 1462h969v-151h-580v-471h541v-150h-541v-538h580v-152h-750v465h-514l-227 -465h-176zM469 618h446v693h-118z" />
<glyph unicode="&#xc7;" horiz-adv-x="1292" d="M125 733q0 226 84.5 396t244 262t382.5 92t395 -84l-72 -146q-166 78 -332 78q-241 0 -380.5 -160.5t-139.5 -443.5t134.5 -439.5t383.5 -156.5q153 0 349 55v-149q-152 -57 -375 -57q-323 0 -498.5 196t-175.5 557zM551 -377q45 -8 114 -8t109.5 20t40.5 68.5t-39.5 75 t-148.5 43.5l88 178h110l-55 -115q180 -39 180 -174q0 -97 -76.5 -150t-226.5 -53q-51 0 -96 9v106z" />
<glyph unicode="&#xc8;" horiz-adv-x="1139" d="M201 0v1462h815v-151h-645v-471h606v-150h-606v-538h645v-152h-815zM320 1886v21h203q32 -69 89 -159.5t101 -143.5v-25h-110q-65 52 -154 148t-129 159z" />
<glyph unicode="&#xc9;" horiz-adv-x="1139" d="M201 0v1462h815v-151h-645v-471h606v-150h-606v-538h645v-152h-815zM456 1579v25q115 148 191 303h202v-21q-44 -65 -131 -160t-151 -147h-111z" />
<glyph unicode="&#xca;" horiz-adv-x="1139" d="M201 0v1462h815v-151h-645v-471h606v-150h-606v-538h645v-152h-815zM263 1579v23q203 217 252 305h166q45 -85 256 -305v-23h-119q-88 55 -221 186q-136 -134 -219 -186h-115z" />
<glyph unicode="&#xcb;" horiz-adv-x="1139" d="M201 0v1462h815v-151h-645v-471h606v-150h-606v-538h645v-152h-815zM327 1732q0 51 26.5 74t64 23t65 -23t27.5 -74t-27.5 -75.5t-65 -24.5t-64 24.5t-26.5 75.5zM708 1732q0 51 26.5 74t63.5 23t64.5 -23t27.5 -74t-27.5 -75.5t-64.5 -24.5t-63.5 24.5t-26.5 75.5z" />
<glyph unicode="&#xcc;" horiz-adv-x="571" d="M5 1886v21h203q32 -69 89 -159.5t101 -143.5v-25h-110q-65 52 -154 148t-129 159zM201 0v1462h170v-1462h-170z" />
<glyph unicode="&#xcd;" horiz-adv-x="571" d="M179 1579v25q115 148 191 303h202v-21q-44 -65 -131 -160t-151 -147h-111zM201 0v1462h170v-1462h-170z" />
<glyph unicode="&#xce;" horiz-adv-x="571" d="M-57 1579v23q203 217 252 305h166q45 -85 256 -305v-23h-119q-88 55 -221 186q-136 -134 -219 -186h-115zM201 0v1462h170v-1462h-170z" />
<glyph unicode="&#xcf;" horiz-adv-x="571" d="M5 1732q0 51 26.5 74t64 23t65 -23t27.5 -74t-27.5 -75.5t-65 -24.5t-64 24.5t-26.5 75.5zM201 0v1462h170v-1462h-170zM386 1732q0 51 26.5 74t63.5 23t64.5 -23t27.5 -74t-27.5 -75.5t-64.5 -24.5t-63.5 24.5t-26.5 75.5z" />
<glyph unicode="&#xd0;" horiz-adv-x="1479" d="M47 649v150h154v663h434q337 0 527 -187.5t190 -539.5t-196.5 -543.5t-565.5 -191.5h-389v649h-154zM371 147h190q610 0 610 592q0 576 -569 576h-231v-516h379v-150h-379v-502z" />
<glyph unicode="&#xd1;" horiz-adv-x="1544" d="M201 0v1462h192l797 -1222h8q-18 247 -14 383v839h159v-1462h-194l-799 1227h-8q16 -216 16 -396v-831h-157zM411 1579q13 121 70.5 189.5t148.5 68.5q68 0 171 -59q39 -23 75 -41.5t76.5 -18.5t64.5 29.5t39 91.5h99q-13 -121 -69.5 -189.5t-150.5 -68.5q-60 0 -164 59 q-40 23 -76.5 41.5t-78.5 18.5q-79 0 -107 -121h-98z" />
<glyph unicode="&#xd2;" horiz-adv-x="1595" d="M125 733.5q0 358.5 176 555t495.5 196.5t496.5 -200t177 -551.5t-177.5 -552.5t-497 -201t-495 197.5t-175.5 556zM305 731q0 -295 126.5 -448.5t368.5 -153.5t366 153t124 449.5t-123.5 449t-366 152.5t-369 -153.5t-126.5 -448.5zM514 1886v21h203q32 -69 89 -159.5 t101 -143.5v-25h-110q-65 52 -154 148t-129 159z" />
<glyph unicode="&#xd3;" horiz-adv-x="1595" d="M125 733.5q0 358.5 176 555t495.5 196.5t496.5 -200t177 -551.5t-177.5 -552.5t-497 -201t-495 197.5t-175.5 556zM305 731q0 -295 126.5 -448.5t368.5 -153.5t366 153t124 449.5t-123.5 449t-366 152.5t-369 -153.5t-126.5 -448.5zM659 1579v25q115 148 191 303h202v-21 q-44 -65 -131 -160t-151 -147h-111z" />
<glyph unicode="&#xd4;" horiz-adv-x="1595" d="M125 733.5q0 358.5 176 555t495.5 196.5t496.5 -200t177 -551.5t-177.5 -552.5t-497 -201t-495 197.5t-175.5 556zM305 731q0 -295 126.5 -448.5t368.5 -153.5t366 153t124 449.5t-123.5 449t-366 152.5t-369 -153.5t-126.5 -448.5zM448 1579v23q203 217 252 305h166 q45 -85 256 -305v-23h-119q-88 55 -221 186q-136 -134 -219 -186h-115z" />
<glyph unicode="&#xd5;" horiz-adv-x="1595" d="M125 733.5q0 358.5 176 555t495.5 196.5t496.5 -200t177 -551.5t-177.5 -552.5t-497 -201t-495 197.5t-175.5 556zM305 731q0 -295 126.5 -448.5t368.5 -153.5t366 153t124 449.5t-123.5 449t-366 152.5t-369 -153.5t-126.5 -448.5zM418 1579q13 121 70.5 189.5 t148.5 68.5q68 0 171 -59q39 -23 75 -41.5t76.5 -18.5t64.5 29.5t39 91.5h99q-13 -121 -69.5 -189.5t-150.5 -68.5q-60 0 -164 59q-40 23 -76.5 41.5t-78.5 18.5q-79 0 -107 -121h-98z" />
<glyph unicode="&#xd6;" horiz-adv-x="1595" d="M125 733.5q0 358.5 176 555t495.5 196.5t496.5 -200t177 -551.5t-177.5 -552.5t-497 -201t-495 197.5t-175.5 556zM305 731q0 -295 126.5 -448.5t368.5 -153.5t366 153t124 449.5t-123.5 449t-366 152.5t-369 -153.5t-126.5 -448.5zM522 1732q0 51 26.5 74t64 23t65 -23 t27.5 -74t-27.5 -75.5t-65 -24.5t-64 24.5t-26.5 75.5zM903 1732q0 51 26.5 74t63.5 23t64.5 -23t27.5 -74t-27.5 -75.5t-64.5 -24.5t-63.5 24.5t-26.5 75.5z" />
<glyph unicode="&#xd7;" d="M133 1075l100 101l353 -355l354 355l96 -99l-352 -354l350 -352l-96 -99l-354 351l-348 -351l-101 99l350 352z" />
<glyph unicode="&#xd8;" horiz-adv-x="1595" d="M125 731q0 361 176 557.5t500 196.5q209 0 366 -94l97 135l120 -80l-106 -148q192 -202 192 -559t-177.5 -558t-493.5 -201q-235 0 -383 100l-101 -141l-120 79l108 154q-178 198 -178 559zM305 748.5q0 -277.5 101 -431.5l669 943q-106 73 -274 73q-243 0 -369.5 -153.5 t-126.5 -431zM508 211q115 -82 291 -82q243 0 367 153t124 438t-110 439z" />
<glyph unicode="&#xd9;" horiz-adv-x="1491" d="M186 520v942h170v-954q0 -183 100 -281t289.5 -98t289.5 98.5t100 282.5v952h170v-946q0 -250 -151 -393t-415 -143t-408.5 144t-144.5 396zM463 1886v21h203q32 -69 89 -159.5t101 -143.5v-25h-110q-65 52 -154 148t-129 159z" />
<glyph unicode="&#xda;" horiz-adv-x="1491" d="M186 520v942h170v-954q0 -183 100 -281t289.5 -98t289.5 98.5t100 282.5v952h170v-946q0 -250 -151 -393t-415 -143t-408.5 144t-144.5 396zM600 1579v25q115 148 191 303h202v-21q-44 -65 -131 -160t-151 -147h-111z" />
<glyph unicode="&#xdb;" horiz-adv-x="1491" d="M186 520v942h170v-954q0 -183 100 -281t289.5 -98t289.5 98.5t100 282.5v952h170v-946q0 -250 -151 -393t-415 -143t-408.5 144t-144.5 396zM393 1579v23q203 217 252 305h166q45 -85 256 -305v-23h-119q-88 55 -221 186q-136 -134 -219 -186h-115z" />
<glyph unicode="&#xdc;" horiz-adv-x="1491" d="M186 520v942h170v-954q0 -183 100 -281t289.5 -98t289.5 98.5t100 282.5v952h170v-946q0 -250 -151 -393t-415 -143t-408.5 144t-144.5 396zM461 1732q0 51 26.5 74t64 23t65 -23t27.5 -74t-27.5 -75.5t-65 -24.5t-64 24.5t-26.5 75.5zM842 1732q0 51 26.5 74t63.5 23 t64.5 -23t27.5 -74t-27.5 -75.5t-64.5 -24.5t-63.5 24.5t-26.5 75.5z" />
<glyph unicode="&#xdd;" horiz-adv-x="1147" d="M0 1462h186l387 -731l390 731h184l-488 -895v-567h-172v559zM442 1579v25q115 148 191 303h202v-21q-44 -65 -131 -160t-151 -147h-111z" />
<glyph unicode="&#xde;" horiz-adv-x="1251" d="M201 0v1462h170v-256h215q281 0 420 -103.5t139 -324.5t-151.5 -340t-438.5 -119h-184v-319h-170zM371 465h168q226 0 327 71.5t101 228t-95 225.5t-297 69h-204v-594z" />
<glyph unicode="&#xdf;" horiz-adv-x="1274" d="M176 0v1202q0 178 110 271.5t324 93.5t326.5 -78.5t112.5 -218t-143 -254.5q-88 -70 -116 -103.5t-28 -66t14 -53.5q25 -39 163.5 -131.5t189.5 -171t51 -179.5q0 -160 -97 -245.5t-280.5 -85.5t-290.5 69v154q139 -86 291 -86q215 0 215 182q0 75 -41.5 128.5 t-160 129.5t-166.5 137.5t-48 135t34.5 126.5t107.5 108t105 100t32 98q0 80 -68 122.5t-195 42.5q-276 0 -276 -223v-1204h-166z" />
<glyph unicode="&#xe0;" horiz-adv-x="1139" d="M94 303q0 332 531 348l186 6v68q0 129 -55.5 190.5t-185 61.5t-302.5 -84l-51 127q173 94 370 94t291.5 -87t94.5 -279v-748h-123l-33 156h-8q-82 -103 -163.5 -139.5t-224 -36.5t-235 84t-92.5 239zM268 314q0 -197 207 -197q155 0 243.5 85t88.5 238v99l-166 -7 q-198 -7 -285.5 -61.5t-87.5 -156.5zM279 1548v21h203q32 -69 89 -159.5t101 -143.5v-25h-110q-65 52 -154 148t-129 159z" />
<glyph unicode="&#xe1;" horiz-adv-x="1139" d="M94 303q0 332 531 348l186 6v68q0 129 -55.5 190.5t-185 61.5t-302.5 -84l-51 127q173 94 370 94t291.5 -87t94.5 -279v-748h-123l-33 156h-8q-82 -103 -163.5 -139.5t-224 -36.5t-235 84t-92.5 239zM268 314q0 -197 207 -197q155 0 243.5 85t88.5 238v99l-166 -7 q-198 -7 -285.5 -61.5t-87.5 -156.5zM436 1241v25q115 148 191 303h202v-21q-44 -65 -131 -160t-151 -147h-111z" />
<glyph unicode="&#xe2;" horiz-adv-x="1139" d="M94 303q0 332 531 348l186 6v68q0 129 -55.5 190.5t-185 61.5t-302.5 -84l-51 127q173 94 370 94t291.5 -87t94.5 -279v-748h-123l-33 156h-8q-82 -103 -163.5 -139.5t-224 -36.5t-235 84t-92.5 239zM228 1241v23q203 217 252 305h166q45 -85 256 -305v-23h-119 q-88 55 -221 186q-136 -134 -219 -186h-115zM268 314q0 -197 207 -197q155 0 243.5 85t88.5 238v99l-166 -7q-198 -7 -285.5 -61.5t-87.5 -156.5z" />
<glyph unicode="&#xe3;" horiz-adv-x="1139" d="M94 303q0 332 531 348l186 6v68q0 129 -55.5 190.5t-185 61.5t-302.5 -84l-51 127q173 94 370 94t291.5 -87t94.5 -279v-748h-123l-33 156h-8q-82 -103 -163.5 -139.5t-224 -36.5t-235 84t-92.5 239zM197 1241q13 121 70.5 189.5t148.5 68.5q68 0 171 -59 q39 -23 75 -41.5t76.5 -18.5t64.5 29.5t39 91.5h99q-13 -121 -69.5 -189.5t-150.5 -68.5q-60 0 -164 59q-40 23 -76.5 41.5t-78.5 18.5q-79 0 -107 -121h-98zM268 314q0 -197 207 -197q155 0 243.5 85t88.5 238v99l-166 -7q-198 -7 -285.5 -61.5t-87.5 -156.5z" />
<glyph unicode="&#xe4;" horiz-adv-x="1139" d="M94 303q0 332 531 348l186 6v68q0 129 -55.5 190.5t-185 61.5t-302.5 -84l-51 127q173 94 370 94t291.5 -87t94.5 -279v-748h-123l-33 156h-8q-82 -103 -163.5 -139.5t-224 -36.5t-235 84t-92.5 239zM268 314q0 -197 207 -197q155 0 243.5 85t88.5 238v99l-166 -7 q-198 -7 -285.5 -61.5t-87.5 -156.5zM279 1394q0 51 26.5 74t64 23t65 -23t27.5 -74t-27.5 -75.5t-65 -24.5t-64 24.5t-26.5 75.5zM660 1394q0 51 26.5 74t63.5 23t64.5 -23t27.5 -74t-27.5 -75.5t-64.5 -24.5t-63.5 24.5t-26.5 75.5z" />
<glyph unicode="&#xe5;" horiz-adv-x="1139" d="M94 303q0 332 531 348l186 6v68q0 129 -55.5 190.5t-185 61.5t-302.5 -84l-51 127q173 94 370 94t291.5 -87t94.5 -279v-748h-123l-33 156h-8q-82 -103 -163.5 -139.5t-224 -36.5t-235 84t-92.5 239zM268 314q0 -197 207 -197q155 0 243.5 85t88.5 238v99l-166 -7 q-198 -7 -285.5 -61.5t-87.5 -156.5zM358 1456q0 98 60.5 155.5t161 57.5t162.5 -59.5t62 -154.5t-61.5 -154.5t-163 -59.5t-161.5 58.5t-60 156.5zM462 1456q0 -56 30 -86.5t84.5 -30.5t87 30.5t32.5 86.5t-33 86.5t-84 30.5t-84 -30.5t-33 -86.5z" />
<glyph unicode="&#xe6;" horiz-adv-x="1757" d="M94 307q0 157 124 246.5t378 97.5l184 6v68q0 129 -58 190.5t-189.5 61.5t-294.5 -84l-52 127q170 94 371 94q130 0 212.5 -43.5t123.5 -138.5q111 184 334 184q192 0 308 -133.5t116 -355.5v-107h-701q8 -395 322 -395q173 0 332 74v-148q-86 -38 -160.5 -54.5 t-175.5 -16.5q-289 0 -414 233q-81 -127 -179.5 -180t-247 -53t-241 85t-92.5 242zM268 310q0 -193 195 -193q145 0 229 84.5t84 238.5v99l-158 -7q-186 -8 -268 -62.5t-82 -159.5zM954 653h519q0 156 -64 240t-184.5 84t-190 -83t-80.5 -241z" />
<glyph unicode="&#xe7;" horiz-adv-x="975" d="M115 544.5q0 271.5 132.5 421.5t377.5 150q79 0 158 -17t124 -40l-51 -141q-127 51 -235 51q-334 0 -334 -426q0 -202 81.5 -310t230 -108t292.5 59v-147q-110 -57 -277 -57q-238 0 -368.5 146.5t-130.5 418zM363 -377q45 -8 114 -8t109.5 20t40.5 68.5t-39.5 75 t-148.5 43.5l88 178h110l-55 -115q180 -39 180 -174q0 -97 -76.5 -150t-226.5 -53q-51 0 -96 9v106z" />
<glyph unicode="&#xe8;" horiz-adv-x="1149" d="M115 540q0 264 130.5 420t343.5 156t333 -135.5t120 -357.5v-105h-755q5 -193 97.5 -293t265 -100t345.5 74v-148q-88 -38 -166.5 -54.5t-189.5 -16.5q-243 0 -383.5 148t-140.5 412zM291 653h573q0 157 -70 240.5t-201 83.5t-209.5 -86t-92.5 -238zM318 1548v21h203 q32 -69 89 -159.5t101 -143.5v-25h-110q-65 52 -154 148t-129 159z" />
<glyph unicode="&#xe9;" horiz-adv-x="1149" d="M115 540q0 264 130.5 420t343.5 156t333 -135.5t120 -357.5v-105h-755q5 -193 97.5 -293t265 -100t345.5 74v-148q-88 -38 -166.5 -54.5t-189.5 -16.5q-243 0 -383.5 148t-140.5 412zM291 653h573q0 157 -70 240.5t-201 83.5t-209.5 -86t-92.5 -238zM471 1241v25 q115 148 191 303h202v-21q-44 -65 -131 -160t-151 -147h-111z" />
<glyph unicode="&#xea;" horiz-adv-x="1149" d="M115 540q0 264 130.5 420t343.5 156t333 -135.5t120 -357.5v-105h-755q5 -193 97.5 -293t265 -100t345.5 74v-148q-88 -38 -166.5 -54.5t-189.5 -16.5q-243 0 -383.5 148t-140.5 412zM259 1241v23q203 217 252 305h166q45 -85 256 -305v-23h-119q-88 55 -221 186 q-136 -134 -219 -186h-115zM291 653h573q0 157 -70 240.5t-201 83.5t-209.5 -86t-92.5 -238z" />
<glyph unicode="&#xeb;" horiz-adv-x="1149" d="M115 540q0 264 130.5 420t343.5 156t333 -135.5t120 -357.5v-105h-755q5 -193 97.5 -293t265 -100t345.5 74v-148q-88 -38 -166.5 -54.5t-189.5 -16.5q-243 0 -383.5 148t-140.5 412zM291 653h573q0 157 -70 240.5t-201 83.5t-209.5 -86t-92.5 -238zM319 1394 q0 51 26.5 74t64 23t65 -23t27.5 -74t-27.5 -75.5t-65 -24.5t-64 24.5t-26.5 75.5zM700 1394q0 51 26.5 74t63.5 23t64.5 -23t27.5 -74t-27.5 -75.5t-64.5 -24.5t-63.5 24.5t-26.5 75.5z" />
<glyph unicode="&#xec;" horiz-adv-x="518" d="M-38 1548v21h203q32 -69 89 -159.5t101 -143.5v-25h-110q-65 52 -154 148t-129 159zM176 0v1096h166v-1096h-166z" />
<glyph unicode="&#xed;" horiz-adv-x="518" d="M169 1241v25q115 148 191 303h202v-21q-44 -65 -131 -160t-151 -147h-111zM176 0v1096h166v-1096h-166z" />
<glyph unicode="&#xee;" horiz-adv-x="518" d="M-77 1241v23q203 217 252 305h166q45 -85 256 -305v-23h-119q-88 55 -221 186q-136 -134 -219 -186h-115zM176 0v1096h166v-1096h-166z" />
<glyph unicode="&#xef;" horiz-adv-x="518" d="M-20 1394q0 51 26.5 74t64 23t65 -23t27.5 -74t-27.5 -75.5t-65 -24.5t-64 24.5t-26.5 75.5zM176 0v1096h166v-1096h-166zM361 1394q0 51 26.5 74t63.5 23t64.5 -23t27.5 -74t-27.5 -75.5t-64.5 -24.5t-63.5 24.5t-26.5 75.5z" />
<glyph unicode="&#xf0;" horiz-adv-x="1221" d="M113 477q0 228 131.5 359t354.5 131t323 -121l8 4q-57 214 -262 405l-271 -155l-73 108l233 133q-92 62 -186 111l69 117q156 -73 258 -148l238 138l76 -107l-207 -119q152 -143 234.5 -342t82.5 -428q0 -281 -130.5 -432t-365 -151t-374 134.5t-139.5 362.5zM281 469 q0 -167 87.5 -258.5t255.5 -91.5q330 0 330 393q0 147 -90 232t-246 85q-337 0 -337 -360z" />
<glyph unicode="&#xf1;" horiz-adv-x="1257" d="M176 0v1096h135l27 -150h8q51 81 143 125.5t205 44.5q198 0 298 -95.5t100 -305.5v-715h-166v709q0 134 -61 200t-191 66q-172 0 -252 -93t-80 -307v-575h-166zM278 1241q13 121 70.5 189.5t148.5 68.5q68 0 171 -59q39 -23 75 -41.5t76.5 -18.5t64.5 29.5t39 91.5h99 q-13 -121 -69.5 -189.5t-150.5 -68.5q-60 0 -164 59q-40 23 -76.5 41.5t-78.5 18.5q-79 0 -107 -121h-98z" />
<glyph unicode="&#xf2;" horiz-adv-x="1237" d="M115 549q0 268 134 417.5t368 149.5t369.5 -153t135.5 -417.5t-135 -415t-373 -150.5q-147 0 -261 69t-176 198t-62 302zM287 549q0 -210 84 -320t247 -110t247.5 109.5t84.5 319.5t-84.5 318.5t-249.5 108.5q-329 0 -329 -426zM349 1548v21h203q32 -69 89 -159.5 t101 -143.5v-25h-110q-65 52 -154 148t-129 159z" />
<glyph unicode="&#xf3;" horiz-adv-x="1237" d="M115 549q0 268 134 417.5t368 149.5t369.5 -153t135.5 -417.5t-135 -415t-373 -150.5q-147 0 -261 69t-176 198t-62 302zM287 549q0 -210 84 -320t247 -110t247.5 109.5t84.5 319.5t-84.5 318.5t-249.5 108.5q-329 0 -329 -426zM479 1241v25q115 148 191 303h202v-21 q-44 -65 -131 -160t-151 -147h-111z" />
<glyph unicode="&#xf4;" horiz-adv-x="1237" d="M115 549q0 268 134 417.5t368 149.5t369.5 -153t135.5 -417.5t-135 -415t-373 -150.5q-147 0 -261 69t-176 198t-62 302zM282 1241v23q203 217 252 305h166q45 -85 256 -305v-23h-119q-88 55 -221 186q-136 -134 -219 -186h-115zM287 549q0 -210 84 -320t247 -110 t247.5 109.5t84.5 319.5t-84.5 318.5t-249.5 108.5q-329 0 -329 -426z" />
<glyph unicode="&#xf5;" horiz-adv-x="1237" d="M115 549q0 268 134 417.5t368 149.5t369.5 -153t135.5 -417.5t-135 -415t-373 -150.5q-147 0 -261 69t-176 198t-62 302zM249 1241q13 121 70.5 189.5t148.5 68.5q68 0 171 -59q39 -23 75 -41.5t76.5 -18.5t64.5 29.5t39 91.5h99q-13 -121 -69.5 -189.5t-150.5 -68.5 q-60 0 -164 59q-40 23 -76.5 41.5t-78.5 18.5q-79 0 -107 -121h-98zM287 549q0 -210 84 -320t247 -110t247.5 109.5t84.5 319.5t-84.5 318.5t-249.5 108.5q-329 0 -329 -426z" />
<glyph unicode="&#xf6;" horiz-adv-x="1237" d="M115 549q0 268 134 417.5t368 149.5t369.5 -153t135.5 -417.5t-135 -415t-373 -150.5q-147 0 -261 69t-176 198t-62 302zM287 549q0 -210 84 -320t247 -110t247.5 109.5t84.5 319.5t-84.5 318.5t-249.5 108.5q-329 0 -329 -426zM336 1394q0 51 26.5 74t64 23t65 -23 t27.5 -74t-27.5 -75.5t-65 -24.5t-64 24.5t-26.5 75.5zM717 1394q0 51 26.5 74t63.5 23t64.5 -23t27.5 -74t-27.5 -75.5t-64.5 -24.5t-63.5 24.5t-26.5 75.5z" />
<glyph unicode="&#xf7;" d="M104 653v138h961v-138h-961zM471 373q0 121 113 121q52 0 81 -31.5t29 -89t-29.5 -89.5t-81 -32t-82 31.5t-30.5 89.5zM471 1071q0 121 113 121q52 0 81 -31.5t29 -89t-29.5 -89.5t-81 -32t-82 31.5t-30.5 89.5z" />
<glyph unicode="&#xf8;" horiz-adv-x="1237" d="M115 555q0 262 134 411.5t372 149.5q154 0 270 -76l84 119l117 -76l-97 -133q127 -152 127 -410.5t-135 -409t-373 -150.5q-154 0 -266 69l-84 -117l-114 78l94 131q-129 152 -129 414zM287 549q0 -171 53 -273l465 646q-75 53 -189 53q-329 0 -329 -426zM434 170 q71 -51 184 -51q163 0 247.5 109.5t84.5 297t-51 287.5z" />
<glyph unicode="&#xf9;" horiz-adv-x="1257" d="M164 379v717h168v-711q0 -134 61 -200t191 -66q172 0 251.5 94t79.5 307v576h166v-1096h-137l-24 147h-9q-51 -81 -141.5 -124t-206.5 -43q-200 0 -299.5 95t-99.5 304zM333 1548v21h203q32 -69 89 -159.5t101 -143.5v-25h-110q-65 52 -154 148t-129 159z" />
<glyph unicode="&#xfa;" horiz-adv-x="1257" d="M164 379v717h168v-711q0 -134 61 -200t191 -66q172 0 251.5 94t79.5 307v576h166v-1096h-137l-24 147h-9q-51 -81 -141.5 -124t-206.5 -43q-200 0 -299.5 95t-99.5 304zM506 1241v25q115 148 191 303h202v-21q-44 -65 -131 -160t-151 -147h-111z" />
<glyph unicode="&#xfb;" horiz-adv-x="1257" d="M164 379v717h168v-711q0 -134 61 -200t191 -66q172 0 251.5 94t79.5 307v576h166v-1096h-137l-24 147h-9q-51 -81 -141.5 -124t-206.5 -43q-200 0 -299.5 95t-99.5 304zM286 1241v23q203 217 252 305h166q45 -85 256 -305v-23h-119q-88 55 -221 186q-136 -134 -219 -186 h-115z" />
<glyph unicode="&#xfc;" horiz-adv-x="1257" d="M164 379v717h168v-711q0 -134 61 -200t191 -66q172 0 251.5 94t79.5 307v576h166v-1096h-137l-24 147h-9q-51 -81 -141.5 -124t-206.5 -43q-200 0 -299.5 95t-99.5 304zM342 1394q0 51 26.5 74t64 23t65 -23t27.5 -74t-27.5 -75.5t-65 -24.5t-64 24.5t-26.5 75.5z M723 1394q0 51 26.5 74t63.5 23t64.5 -23t27.5 -74t-27.5 -75.5t-64.5 -24.5t-63.5 24.5t-26.5 75.5z" />
<glyph unicode="&#xfd;" horiz-adv-x="1032" d="M2 1096h178l240 -625q79 -214 98 -309h8q28 110 326 934h178l-471 -1248q-70 -185 -163.5 -262.5t-229.5 -77.5q-76 0 -150 17v133q55 -12 123 -12q171 0 244 192l61 156zM411 1241v25q115 148 191 303h202v-21q-44 -65 -131 -160t-151 -147h-111z" />
<glyph unicode="&#xfe;" horiz-adv-x="1255" d="M176 -492v2048h166v-466q0 -52 -6 -142h8q125 168 341 168t336 -150t120 -417.5t-120.5 -418t-338.5 -150.5t-340 161h-12l4 -34q8 -77 8 -140v-459h-166zM342 549q0 -231 77 -330.5t247 -99.5q303 0 303 432q0 215 -74 319.5t-236.5 104.5t-238.5 -92t-78 -293v-41z" />
<glyph unicode="&#xff;" horiz-adv-x="1032" d="M2 1096h178l240 -625q79 -214 98 -309h8q28 110 326 934h178l-471 -1248q-70 -185 -163.5 -262.5t-229.5 -77.5q-76 0 -150 17v133q55 -12 123 -12q171 0 244 192l61 156zM234 1394q0 51 26.5 74t64 23t65 -23t27.5 -74t-27.5 -75.5t-65 -24.5t-64 24.5t-26.5 75.5z M615 1394q0 51 26.5 74t63.5 23t64.5 -23t27.5 -74t-27.5 -75.5t-64.5 -24.5t-63.5 24.5t-26.5 75.5z" />
<glyph unicode="&#x152;" horiz-adv-x="1890" d="M125 734q0 361 174 556t494 195q102 0 192 -23h782v-151h-589v-471h551v-150h-551v-538h589v-152h-768q-102 -20 -194 -20q-327 0 -503.5 196.5t-176.5 557.5zM305 732q0 -296 128.5 -449.5t375.5 -153.5q112 0 199 33v1141q-87 30 -197 30q-249 0 -377.5 -152.5 t-128.5 -448.5z" />
<glyph unicode="&#x153;" horiz-adv-x="1929" d="M113 549.5q0 264.5 131 414.5t366 150q131 0 233.5 -59.5t164.5 -173.5q58 112 154 172.5t222 60.5q201 0 320 -132.5t119 -358.5v-105h-729q8 -393 338 -393q177 0 342 74v-148q-88 -39 -164 -55t-180 -16q-293 0 -418 235q-126 -235 -408 -235q-223 0 -357 152.5 t-134 417zM287 548.5q0 -210.5 76 -320t241 -109.5t241.5 106.5t76.5 321.5t-77.5 321.5t-243 106.5t-240 -108t-74.5 -318.5zM1098 653h544q0 158 -66 240t-193.5 82t-200 -82t-84.5 -240z" />
<glyph unicode="&#x178;" horiz-adv-x="1147" d="M0 1462h186l387 -731l390 731h184l-488 -895v-567h-172v559zM294 1732q0 51 26.5 74t64 23t65 -23t27.5 -74t-27.5 -75.5t-65 -24.5t-64 24.5t-26.5 75.5zM675 1732q0 51 26.5 74t63.5 23t64.5 -23t27.5 -74t-27.5 -75.5t-64.5 -24.5t-63.5 24.5t-26.5 75.5z" />
<glyph unicode="&#x2c6;" horiz-adv-x="1212" d="M268 1241v23q203 217 252 305h166q45 -85 256 -305v-23h-119q-88 55 -221 186q-136 -134 -219 -186h-115z" />
<glyph unicode="&#x2dc;" horiz-adv-x="1212" d="M264 1241q13 121 70.5 189.5t148.5 68.5q68 0 171 -59q39 -23 75 -41.5t76.5 -18.5t64.5 29.5t39 91.5h99q-13 -121 -69.5 -189.5t-150.5 -68.5q-60 0 -164 59q-40 23 -76.5 41.5t-78.5 18.5q-79 0 -107 -121h-98z" />
<glyph unicode="&#x2000;" horiz-adv-x="953" />
<glyph unicode="&#x2001;" horiz-adv-x="1907" />
<glyph unicode="&#x2002;" horiz-adv-x="953" />
<glyph unicode="&#x2003;" horiz-adv-x="1907" />
<glyph unicode="&#x2004;" horiz-adv-x="635" />
<glyph unicode="&#x2005;" horiz-adv-x="476" />
<glyph unicode="&#x2006;" horiz-adv-x="317" />
<glyph unicode="&#x2007;" horiz-adv-x="317" />
<glyph unicode="&#x2008;" horiz-adv-x="238" />
<glyph unicode="&#x2009;" horiz-adv-x="381" />
<glyph unicode="&#x200a;" horiz-adv-x="105" />
<glyph unicode="&#x2010;" horiz-adv-x="659" d="M84 473v152h491v-152h-491z" />
<glyph unicode="&#x2011;" horiz-adv-x="659" d="M84 473v152h491v-152h-491z" />
<glyph unicode="&#x2012;" horiz-adv-x="659" d="M84 473v152h491v-152h-491z" />
<glyph unicode="&#x2013;" horiz-adv-x="1024" d="M82 473v152h860v-152h-860z" />
<glyph unicode="&#x2014;" horiz-adv-x="2048" d="M82 473v152h1884v-152h-1884z" />
<glyph unicode="&#x2018;" horiz-adv-x="348" d="M25 983q51 209 176 479h123q-66 -254 -103 -501h-184z" />
<glyph unicode="&#x2019;" horiz-adv-x="348" d="M25 961q70 285 102 501h182l15 -22q-58 -223 -177 -479h-122z" />
<glyph unicode="&#x201a;" horiz-adv-x="502" d="M63 -264q75 288 105 502h182l15 -23q-58 -223 -177 -479h-125z" />
<glyph unicode="&#x201c;" horiz-adv-x="717" d="M25 983q51 209 176 479h123q-66 -254 -103 -501h-184zM391 983q56 215 178 479h123q-72 -275 -102 -501h-184z" />
<glyph unicode="&#x201d;" horiz-adv-x="717" d="M25 961q70 285 102 501h182l15 -22q-58 -223 -177 -479h-122zM391 961q76 291 105 501h182l14 -22q-59 -225 -176 -479h-125z" />
<glyph unicode="&#x201e;" horiz-adv-x="829" d="M25 -263q70 285 102 501h182l15 -22q-58 -223 -177 -479h-122zM391 -263q76 291 105 501h182l14 -22q-59 -225 -176 -479h-125z" />
<glyph unicode="&#x2022;" horiz-adv-x="770" d="M164 750q0 119 56.5 182t163 63t164.5 -62t58 -183t-57.5 -185.5t-164 -64.5t-163.5 65.5t-57 184.5z" />
<glyph unicode="&#x2026;" horiz-adv-x="1606" d="M152 106q0 136 118 136q58 0 90.5 -34.5t32.5 -100.5t-33 -101t-87 -35t-87.5 31.5t-33.5 103.5zM682 106q0 136 118 136q58 0 90.5 -34.5t32.5 -100.5t-33 -101t-87 -35t-87.5 31.5t-33.5 103.5zM1213 106q0 136 118 136q58 0 90.5 -34.5t32.5 -100.5t-33 -101t-87 -35 t-87.5 31.5t-33.5 103.5z" />
<glyph unicode="&#x202f;" horiz-adv-x="381" />
<glyph unicode="&#x2039;" horiz-adv-x="623" d="M82 524v27l342 407l119 -69l-289 -350l289 -351l-119 -71z" />
<glyph unicode="&#x203a;" horiz-adv-x="623" d="M80 188l287 351l-287 350l117 69l344 -407v-27l-344 -407z" />
<glyph unicode="&#x205f;" horiz-adv-x="476" />
<glyph unicode="&#x20ac;" horiz-adv-x="1208" d="M63 506v129h152l-2 42v44l2 80h-152v129h164q39 261 185 407t365 146t384 -97l-71 -139q-166 86 -295 86q-319 0 -398 -403h510v-129h-524l-2 -57v-64l2 -45h463v-129h-447q37 -180 138.5 -278.5t264.5 -98.5t316 66v-150q-146 -65 -317 -65q-237 0 -381.5 134.5 t-190.5 391.5h-166z" />
<glyph unicode="&#x2122;" horiz-adv-x="1589" d="M37 1356v106h543v-106h-211v-615h-123v615h-209zM647 741v721h187l196 -559l203 559h180v-721h-127v420l6 137h-8l-211 -557h-104l-201 559h-8l6 -129v-430h-119z" />
<glyph unicode="&#xe000;" horiz-adv-x="1095" d="M0 0v1095h1095v-1095h-1095z" />
</font>
</defs>
</svg>
