<?xml version="1.0" standalone="no"?>
<!DOCTYPE svg PUBLIC "-//W3C//DTD SVG 1.1//EN" "http://www.w3.org/Graphics/SVG/1.1/DTD/svg11.dtd" >
<svg xmlns="http://www.w3.org/2000/svg">
<metadata></metadata>
<defs>
<font id="QuicksandRegular" horiz-adv-x="1255" >
<font-face units-per-em="2048" ascent="1638" descent="-410" />
<missing-glyph horiz-adv-x="614" />
<glyph horiz-adv-x="0" />
<glyph horiz-adv-x="2048" />
<glyph unicode="&#xd;" horiz-adv-x="681" />
<glyph unicode=" "  horiz-adv-x="614" />
<glyph unicode="&#x09;" horiz-adv-x="614" />
<glyph unicode="&#xa0;" horiz-adv-x="614" />
<glyph unicode="!" horiz-adv-x="516" d="M190 49v49q0 20 14.5 34.5t35 14.5t36 -14t15.5 -35v-49q0 -20 -15.5 -34.5t-36 -14.5t-35 14.5t-14.5 34.5zM190 356v1028q0 20 14.5 35t35 15t36 -14.5t15.5 -35.5v-1028q0 -20 -14.5 -35.5t-36 -15.5t-36 15.5t-14.5 35.5z" />
<glyph unicode="&#x22;" horiz-adv-x="839" d="M143 944l62 440q8 53 57 54h39q33 0 33 -35q0 -2 -10 -49l-117 -412q-12 -37 -35 -37q-35 0 -29 39zM512 944l61 440q8 53 58 54h39q33 0 32 -35q0 -2 -10 -49l-117 -412q-12 -37 -34 -37q-35 0 -29 39z" />
<glyph unicode="#" horiz-adv-x="1433" d="M92 430.5q0 20.5 14.5 34.5t34.5 14h224l84 484h-226q-20 0 -34.5 13t-14.5 33.5t14.5 35t34.5 14.5h242l57 338q6 45 51 45q25 0 37.5 -18.5t7.5 -41.5l-55 -323h424l57 338q6 45 52 45q25 0 37 -18.5t8 -41.5l-56 -323h205q20 0 34.5 -13.5t14.5 -34t-14 -34.5t-35 -14 h-221l-84 -484h223q20 0 34.5 -13t14.5 -33.5t-14 -35t-35 -14.5h-239l-60 -346q-6 -45 -51 -45q-25 0 -37 18.5t-8 40.5l57 332h-424l-59 -346q-6 -45 -51 -45q-25 0 -37 18t-8 41l57 332h-207q-20 0 -34.5 13.5t-14.5 34zM463 479h424l84 484h-424z" />
<glyph unicode="$" horiz-adv-x="1294" d="M124.5 241.5q0.5 22.5 16 38t37 15.5t35.5 -14q176 -164 399 -187v584q-229 51 -331.5 141t-102.5 245t122 260.5t308 109.5v77q0 20 14.5 35t35 15t35 -14.5t14.5 -35.5v-81q193 -16 364 -144q29 -23 29 -45t-15.5 -37.5t-37 -15.5t-37.5 14q-143 115 -308 133v-573 q233 -49 338 -140.5t105 -248t-123 -262t-315 -111.5v-160q0 -20 -14.5 -34.5t-35 -14.5t-35 14.5t-14.5 34.5v162q-256 20 -461 199q-23 18 -22.5 40.5zM283 1072.5q0 -111.5 69.5 -178.5t259.5 -112v559q-147 -2 -238 -79.5t-91 -189zM702 92q152 2 245 81t93 193.5 t-72.5 181t-265.5 109.5v-565z" />
<glyph unicode="%" horiz-adv-x="1687" d="M113 1079v4q0 150 89 258.5t227 108.5t226 -107.5t88 -255.5v-4q0 -149 -89 -257.5t-227 -108.5t-226 107.5t-88 254.5zM219 1083q0 -118 61.5 -198t150.5 -80t147.5 79t58.5 195v4q0 119 -61.5 199t-150.5 80t-147.5 -80t-58.5 -195v-4zM299 33.5q0 17.5 8 27.5 l998 1358q16 23 36.5 23t34 -12.5t13.5 -30t-9 -27.5l-997 -1358q-16 -23 -36.5 -22.5t-34 12.5t-13.5 29.5zM944 346v4q0 150 89 258.5t227.5 108.5t226.5 -107.5t88 -255.5v-4q0 -149 -89 -257.5t-227.5 -108.5t-226.5 107.5t-88 254.5zM1051 350q0 -119 61.5 -198.5 t150.5 -79.5t147 78.5t58 195.5v4q0 119 -61 199t-150.5 80t-147.5 -80t-58 -195v-4z" />
<glyph unicode="&#x26;" horiz-adv-x="1425" d="M100 469q0 117 54.5 219.5t148.5 167.5q-90 96 -90 235.5t101.5 241t244.5 101.5t244.5 -101.5t101.5 -245.5q0 -20 -15.5 -34.5t-35.5 -14.5t-34.5 14.5t-14.5 34.5q0 102 -71.5 174t-174 72t-174.5 -71.5t-72 -185t105 -187.5q33 -27 16 -60q-2 -12 -14 -21t-21 -11 q-90 -49 -144 -135.5t-54 -192.5q0 -152 108.5 -260.5t260 -108.5t260 108.5t108.5 260.5q0 39 -10 84q-23 4 -62 4q-270 0 -270 -168q0 -18 6 -43q10 -49 -33 -63q-6 -2 -14 -2q-39 0 -49 34q-10 10 -10 74q0 106 71 174q94 94 299 94q49 0 72 -4h33q86 15 86 91 q0 40 -5 60.5t6 38t32 21.5q45 10 61 -37q6 -42 6 -75q8 -127 -129 -187q10 -51 10 -96q0 -195 -138 -332t-330.5 -137t-331 137t-138.5 332z" />
<glyph unicode="'" horiz-adv-x="471" d="M143 944l62 440q8 53 57 54h39q33 0 33 -35q0 -2 -10 -49l-117 -412q-12 -37 -35 -37q-35 0 -29 39z" />
<glyph unicode="(" horiz-adv-x="880" d="M145.5 619.5q-0.5 351.5 98.5 564.5q117 256 356 256q23 0 39 -17.5t16 -40t-16 -40t-39 -17.5q-164 -2 -254 -190q-86 -188 -86 -514t86 -515q92 -190 254 -190q23 0 39 -17.5t16 -41t-16 -40t-39 -16.5h-4q-121 0 -211 69.5t-141 186.5q-98 211 -98.5 562.5z" />
<glyph unicode=")" horiz-adv-x="880" d="M123 -142.5q0 23.5 16.5 41t38.5 17.5q162 0 254 190q86 188 86 514t-86 515q-90 188 -254 190q-23 0 -39 17.5t-16 40t16.5 40t38.5 17.5q240 0 357 -256q98 -213 98 -564.5t-98 -562.5q-51 -117 -141.5 -186.5t-211.5 -69.5h-4q-23 0 -39 16.5t-16 40z" />
<glyph unicode="*" horiz-adv-x="880" d="M156 1000.5q0 21.5 28 33.5l211 101l-211 100q-29 14 -28 39q0 39 41 43q14 0 32 -12l187 -127l-17 223q-2 18 10.5 31.5t31 13.5t30.5 -13.5t10 -31.5l-16 -223l186 127q18 12 33.5 12t28 -13.5t12.5 -35t-29 -33.5l-211 -100l211 -101q29 -12 29 -33.5t-12.5 -35 t-27.5 -13.5t-34 13l-186 127l16 -224q2 -18 -10 -31.5t-30.5 -13.5t-31 13.5t-10.5 31.5l17 224l-187 -127q-38 -25 -61 1q-12 13 -12 34.5z" />
<glyph unicode="+" horiz-adv-x="1269" d="M131 716.5q0 28.5 20.5 49t49.5 20.5h374v375q0 29 19.5 48.5t48.5 19.5t49.5 -19.5t20.5 -48.5v-375h374q29 0 48.5 -20.5t19.5 -49t-19.5 -48t-48.5 -19.5h-374v-375q0 -29 -20.5 -49t-49.5 -20t-48.5 20t-19.5 49v375h-374q-29 0 -49.5 19.5t-20.5 48z" />
<glyph unicode="," horiz-adv-x="471" d="M111 -184q0 16 16 26q104 57 96 158q-55 14 -55 72v43q0 29 19.5 48t48 19t48 -19.5t19.5 -47.5v-52q0 -158 -60.5 -218t-96 -60t-35.5 31z" />
<glyph unicode="-" horiz-adv-x="835" d="M135 711q0 39 39 39h436q39 0 39 -37q0 -18 -11 -29.5t-28 -11.5h-436q-39 0 -39 39z" />
<glyph unicode="." horiz-adv-x="471" d="M168 102q0 43 29.5 73t72.5 30t73 -30t30 -73t-30 -72.5t-73 -29.5t-72.5 29.5t-29.5 72.5z" />
<glyph unicode="/" horiz-adv-x="864" d="M160 70l559 1327q23 43 65 26q20 -8 27.5 -26.5t-0.5 -38.5l-559 -1327q-12 -31 -36 -31t-30 2q-45 23 -26 68z" />
<glyph unicode="0" horiz-adv-x="1454" d="M133 717q0 295 137 502q150 215 359 215t358 -215q139 -215 139 -502t-139 -500q-147 -217 -358 -217t-353.5 211t-142.5 506zM233 717q0 -262 121 -445q117 -172 272.5 -172t276.5 172q123 185 123 445t-120 438t-279.5 178t-276.5 -177t-117 -439z" />
<glyph unicode="1" horiz-adv-x="686" d="M76 1186q-25 45 18 67l277 168q16 10 39 4q43 -12 34 -59v-1317q0 -20 -14 -34.5t-34.5 -14.5t-35 14.5t-14.5 34.5v1239l-203 -119q-12 -8 -32.5 -8t-34.5 25z" />
<glyph unicode="2" horiz-adv-x="1208" d="M109 14q-33 39 2 74l669 604q123 113 123 263.5t-102.5 264t-256 113.5t-259.5 -94l-70 -63q-16 -14 -36.5 -14.5t-34 16t-13.5 37t16 32.5l70 66q137 121 331.5 121t330.5 -154q123 -131 122.5 -325.5t-153.5 -336.5l-574 -518h678q20 0 34.5 -15t14.5 -35.5t-14 -35 t-35 -14.5h-807q-24 0 -36 14z" />
<glyph unicode="3" horiz-adv-x="1249" d="M152 179q0 22 14 36t34.5 14t37.5 -14q115 -111 272.5 -111t270 112t112.5 271.5t-111.5 271t-271.5 111.5q-25 0 -41 21h-2q-16 14 -16 36.5t16 37.5l356 366h-549q-20 0 -35.5 14.5t-15.5 37t15.5 37t35.5 14.5h670q23 0 37 -14.5t14 -33t-4 -26.5t-12 -17l-371 -380 q143 -29 246 -132q141 -141 141 -343.5t-143 -345t-344 -142.5t-342 143q-14 14 -14 36z" />
<glyph unicode="4" horiz-adv-x="1359" d="M102 338q-2 22 13 37l829 1032l2 2q31 37 70 6q10 -6 18 -33v-989h96q20 0 36 -14t16 -34.5t-15.5 -35t-36.5 -14.5h-96v-246q0 -20 -15 -34.5t-35.5 -14.5t-35 14.5t-14.5 34.5v246h-782q-46 0 -50 43zM256 393h678v840z" />
<glyph unicode="5" horiz-adv-x="1239" d="M127 177q0 22 16.5 37t37 15t36.5 -16q115 -111 271.5 -111t269 113t112.5 272.5t-110.5 270t-270 110.5t-272.5 -112q-16 -14 -44 -14.5t-40 30.5v2q-2 2 -2 4v29l70 577q0 23 20 37q12 12 33 13h668q20 0 35.5 -14.5t15.5 -37t-14.5 -37t-36.5 -14.5h-625l-51 -426 q113 66 243 66q203 0 343.5 -140.5t140.5 -345t-143.5 -345t-344 -140.5t-342.5 141q-16 14 -16 36z" />
<glyph unicode="6" horiz-adv-x="1314" d="M131 551q4 334 139 569q170 299 502 312q20 2 34.5 -12.5t15.5 -35t-13 -36t-35 -17.5q-268 -10 -418 -260q-68 -117 -102 -287q141 162 347 162t344 -139t138 -335t-138 -334t-333.5 -138t-333 133t-143.5 324q-4 31 -4 94zM236 465l2 -41q18 -137 123.5 -230.5 t254 -93.5t259 109.5t110.5 263.5t-110.5 263.5t-265 109.5t-264 -109.5t-109.5 -263.5v-8z" />
<glyph unicode="7" horiz-adv-x="1202" d="M131 1376.5q0 20.5 14.5 34.5t34.5 14h758q16 4 39 -6t22.5 -34.5t-8.5 -34.5l-555 -1319q-14 -31 -46 -31t-43 25.5t-5 44.5l530 1257h-692q-20 0 -34.5 14.5t-14.5 35z" />
<glyph unicode="8" horiz-adv-x="1290" d="M113 465q0 143 79.5 260t206.5 170q-119 92 -118.5 228.5t86.5 223.5t209.5 87t212 -87t88.5 -223.5t-123 -228.5q129 -53 208.5 -170t79.5 -260q0 -195 -136 -330t-328.5 -135t-328.5 136t-136 329zM211 464.5q0 -151.5 107.5 -259t260 -107.5t259 107.5t106.5 259 t-106.5 259t-259 107.5t-260 -107.5t-107.5 -259zM379 1137q0 -84 58.5 -142.5t141.5 -58.5t141 59.5t58 141.5t-58 140t-141 58t-141.5 -57t-58.5 -141z" />
<glyph unicode="9" horiz-adv-x="1314" d="M135 961.5q0 195.5 139.5 334t328 138.5t322.5 -120t154 -298q2 -2 2 -4l6 -129q0 -330 -137 -572q-174 -299 -501 -311h-3q-23 0 -37 13.5t-14 33.5q0 49 49 53q270 10 418 260q74 129 103 287q-137 -158 -345 -158t-346.5 138.5t-138.5 334zM236 961.5 q0 -154.5 109.5 -263t265 -108.5t264 108.5t108.5 263t-109.5 263t-264 108.5t-264 -108.5t-109.5 -263z" />
<glyph unicode=":" horiz-adv-x="491" d="M178 102q0 43 30 73t73 30t72.5 -30t29.5 -73t-29.5 -72.5t-72.5 -29.5t-73 29.5t-30 72.5zM178 963q0 43 30 72.5t73 29.5t72.5 -29.5t29.5 -72.5t-29.5 -73t-72.5 -30t-73 30t-30 73z" />
<glyph unicode=";" horiz-adv-x="491" d="M121 -184q0 16 16 26q104 57 96 158q-55 14 -55 72v43q0 29 19.5 48t48 19t48 -19.5t19.5 -47.5v-52q0 -158 -60 -218t-96 -60t-36 31zM139 961q0 43 30 72.5t73 29.5t72.5 -29.5t29.5 -72.5t-29.5 -73t-72.5 -30t-73 30t-30 73z" />
<glyph unicode="&#x3c;" horiz-adv-x="1269" d="M141 672q-39 39 2 84l648 655q16 16 41.5 16t41.5 -16q14 -18 14.5 -43t-14.5 -43l-610 -612l610 -615q14 -16 14.5 -39.5t-14 -41t-40 -17.5t-43.5 18z" />
<glyph unicode="=" horiz-adv-x="1269" d="M162 494.5q0 23.5 16.5 40t40.5 16.5h729q25 0 41.5 -16.5t16.5 -40t-16.5 -40t-41.5 -16.5h-729q-25 0 -41 16.5t-16 40zM162 937q0 24 16.5 40t40.5 16h729q25 0 41.5 -16t16.5 -40t-16.5 -40t-41.5 -16h-729q-25 0 -41 16t-16 40z" />
<glyph unicode="&#x3e;" horiz-adv-x="1269" d="M188 58.5q0 23.5 15 39.5l610 615l-610 612q-14 18 -14.5 43t14.5 43q16 16 41.5 16t42.5 -16l649 -657q16 -16 16 -41t-18 -43l-647 -652q-17 -18 -41.5 -18t-41 17.5t-16.5 41z" />
<glyph unicode="?" horiz-adv-x="1093" d="M84 1176.5q-4 19.5 6 35.5q57 102 158.5 162t222.5 60q182 0 312 -130t130 -306.5t-113.5 -302.5t-279.5 -144v-219q0 -20 -14 -33.5t-33.5 -13.5t-34 13.5t-14.5 33.5v264q0 20 14.5 33.5t32.5 13.5q143 0 244.5 101.5t101.5 246t-100.5 244.5t-245.5 102 q-96 0 -175 -47t-124 -127q-10 -16 -29.5 -21t-37 5t-21.5 29.5zM424 47v45q0 20 14.5 34.5t34 14.5t33.5 -14t14 -35v-45q0 -20 -14 -33.5t-33.5 -13.5t-34 13.5t-14.5 33.5z" />
<glyph unicode="@" horiz-adv-x="2007" d="M109 719q0 299 209.5 508t508.5 209t508 -210t209 -507q0 -180 -76 -328q-99 -155 -227 -160q-76 0 -112.5 52.5t-36.5 101.5v70q-111 -123 -263.5 -123t-260 113.5t-107.5 272.5t107.5 271.5t259 112.5t257 -112.5t105.5 -270.5v-328h2q-2 -14 12 -45q10 -14 37 -14h16 q41 10 75 46t44 60q68 123 68 281q0 254 -181.5 435t-435.5 181t-436 -181t-182 -436t182 -436.5t436 -181.5q94 0 154 17q20 4 37.5 -5.5t19.5 -29.5q8 -20 -3 -37.5t-31 -21.5q-86 -23 -177 -23q-299 0 -508.5 210t-209.5 509zM567 719q0 -117 76 -199t183.5 -82t185.5 82 t78 199t-78 199.5t-184.5 82.5t-183.5 -82.5t-77 -199.5z" />
<glyph unicode="A" horiz-adv-x="1323" d="M123 68l498 1329q14 31 50 31h1q37 0 47 -31l498 -1329q4 -9 4 -18q-1 -10 -5 -20q-8 -20 -26 -28l-19 -2q-35 0 -47 33l-127 338h-653l-127 -338q-12 -33 -47 -33l-18 2q-18 8 -28 28q-5 11 -5 21q0 8 4 17zM381 471h580l-289 770z" />
<glyph unicode="B" horiz-adv-x="1216" d="M213 49v1335q0 20 14.5 35t34.5 15h320q147 0 251.5 -104.5t104.5 -263.5t-137 -269q123 -43 201.5 -148.5t78.5 -238.5q0 -170 -119.5 -290t-289.5 -120h-412q-20 0 -33.5 14.5t-13.5 34.5zM313 100h359q127 0 217 90.5t90 218.5t-90 219t-217 91h-359v-619zM313 821 h269q106 0 181 75t75 180.5t-75 181t-181 75.5h-269v-512z" />
<glyph unicode="C" horiz-adv-x="1579" d="M150 726q0 302 218 514t527 214q258 0 463 -158q16 -14 19 -36q1 -4 1 -7q0 -17 -12 -28q-12 -18 -33.5 -20.5t-36.5 9.5q-178 139 -401 140q-268 0 -456.5 -184.5t-188.5 -444.5t188.5 -442.5t439 -182.5t414.5 140q18 12 40 9t32 -22q14 -14 12 -36.5t-18 -34.5 q-203 -156 -463 -156q-309 0 -527 212t-218 514z" />
<glyph unicode="D" horiz-adv-x="1472" d="M213 49v1335q0 20 14.5 35t34.5 15h268q297 0 507 -211t210 -508t-210 -506t-507 -209h-272q-18 2 -31.5 15.5t-13.5 33.5zM313 100h217q256 0 436.5 180.5t180.5 435.5t-180.5 435t-436.5 182h-217v-1233z" />
<glyph unicode="E" horiz-adv-x="1214" d="M213 49v1335q0 20 14.5 35t34.5 15h737q20 0 35 -14.5t15 -36t-14.5 -36t-35.5 -14.5h-686v-567h600q20 0 35 -15.5t15 -36t-14.5 -34.5t-35.5 -14h-600v-566h686q20 0 35 -14t15 -35.5t-14.5 -36t-35.5 -14.5h-741q-18 2 -31.5 15.5t-13.5 33.5z" />
<glyph unicode="F" horiz-adv-x="1239" d="M213 49v1335q0 45 47 50h741q20 0 35 -14.5t15 -35t-14.5 -36t-35.5 -15.5h-688v-567h602q23 0 37.5 -14.5t14.5 -36t-15.5 -35.5t-36.5 -14h-602v-617q0 -20 -15 -34.5t-35.5 -14.5t-35 14.5t-14.5 34.5z" />
<glyph unicode="G" horiz-adv-x="1667" d="M150 727q0 301 218 514t527 213q256 0 465 -162q14 -10 16 -32v-6q0 -17 -10 -31q-17 -21 -38 -21q-15 0 -34 12q-170 139 -399 140q-268 0 -456.5 -183.5t-188.5 -443.5t188.5 -443.5t456.5 -183.5q211 0 379 123v422h-391q-23 0 -37.5 14.5t-14.5 36t14.5 35.5t37.5 14 h448q18 -2 31.5 -16t13.5 -35v-499q-4 -25 -18 -37q-199 -158 -463 -158q-309 2 -527 214t-218 513z" />
<glyph unicode="H" horiz-adv-x="1452" d="M213 49v1335q0 20 14.5 35t35 15t35.5 -14.5t15 -35.5v-618h738v618q0 20 14 35t34.5 15t36 -14.5t15.5 -35.5v-1335q0 -20 -15.5 -34.5t-36 -14.5t-34.5 14.5t-14 34.5v619h-738v-619q0 -20 -15 -34.5t-35.5 -14.5t-35 14.5t-14.5 34.5z" />
<glyph unicode="I" horiz-adv-x="624" d="M227 49v1335q0 20 14.5 35t35 15t36 -14.5t15.5 -35.5v-1335q0 -20 -15.5 -34.5t-36 -14.5t-35 14.5t-14.5 34.5z" />
<glyph unicode="J" horiz-adv-x="1216" d="M94 336q-2 8 -2 16q0 11 5 22q9 19 29.5 25.5t39 -3t22.5 -27.5q39 -121 140 -196q99 -73 222 -73h7q160 0 273.5 113t113.5 272v899q0 20 14.5 35t35 15t34.5 -14.5t14 -35.5v-899q0 -203 -142 -344t-343 -141q-160 0 -288 94.5t-175 241.5z" />
<glyph unicode="K" horiz-adv-x="1464" d="M213 49v1329q0 20 14.5 36t35 16t35.5 -14.5t15 -37.5v-829l867 866q16 14 36.5 14.5t35 -14t14.5 -35t-17 -37.5l-549 -548l562 -713q12 -16 12 -31q0 -21 -21 -41q-12 -10 -34.5 -10t-34.5 18l-555 705l-316 -315v-359q0 -20 -15 -34.5t-35.5 -14.5t-35 14.5 t-14.5 34.5z" />
<glyph unicode="L" horiz-adv-x="1153" d="M213 49v1335q0 20 14.5 35t35 15t35.5 -14.5t15 -35.5v-1284h686q20 0 36 -15t16 -35.5t-16 -35t-36 -14.5h-737q-20 0 -34.5 14.5t-14.5 34.5z" />
<glyph unicode="M" horiz-adv-x="1728" d="M213 49v1327q0 23 25 43q17 11 31 11q21 0 38 -23l510 -707l508 707q9 15 31 19q5 1 11 1q15 0 28 -8q23 -23 22 -43v-1327q0 -20 -14 -34.5t-34.5 -14.5t-35 14.5t-14.5 34.5v1180l-459 -637q-14 -23 -41 -23h-4q-29 0 -43 23l-459 635v-1178q0 -20 -14 -34.5 t-34.5 -14.5t-36 14.5t-15.5 34.5z" />
<glyph unicode="N" horiz-adv-x="1579" d="M219 49v1315q-3 10 -3 19q0 19 16 31q19 14 36 13q4 -1 8 -1q22 -4 31 -19l869 -1204v1167q0 20 14 34.5t34.5 14.5t36 -14t15.5 -35v-1321q0 -20 -15.5 -34.5t-37 -14.5t-45.5 27l-861 1196v-1174q0 -20 -14 -34.5t-34.5 -14.5t-35 14.5t-14.5 34.5z" />
<glyph unicode="O" horiz-adv-x="1740" d="M150 727q2 303 202.5 515t488 212t486.5 -212t199 -515t-199 -515t-486.5 -212t-488 212t-202.5 515zM250 728q0 -263 173 -445.5t414.5 -182.5t413.5 183.5t172 445.5t-171 442.5t-413.5 180.5t-415.5 -180.5t-173 -443.5z" />
<glyph unicode="P" horiz-adv-x="1193" d="M213 49v1335q0 20 14.5 35t34.5 15h406q168 0 287.5 -120t119.5 -289t-119.5 -289t-287.5 -120l-355 -4v-563q0 -20 -15 -34.5t-35.5 -14.5t-35 14.5t-14.5 34.5zM313 713h355q127 2 218 93t91 218t-91 218t-218 91h-355v-620z" />
<glyph unicode="Q" horiz-adv-x="1728" d="M135 738.5q0 287.5 201 500.5t487.5 213t487 -213t200.5 -514q0 -223 -116.5 -404.5t-304.5 -267.5l-207 -96q72 -14 125 -45q176 -106 305 -106l1 -1q129 0 261 103q18 13 34 13q21 0 38 -21q10 -14 10 -32v-6q-2 -22 -17 -36q-158 -121 -323 -121h-2q-158 0 -357 117 q-80 45 -156.5 45t-134 -16.5t-71.5 -28.5h-2q-29 -14 -57 4h-2q-12 18 -17.5 29.5t0.5 31t25 29.5l190 86q-256 35 -427 242t-171 494.5zM238 725q0 -260 172 -443.5t413.5 -183.5t413.5 183.5t172 443.5t-172 442.5t-413.5 182.5t-413.5 -182.5t-172 -442.5z" />
<glyph unicode="R" horiz-adv-x="1280" d="M184 49v1335q0 18 13.5 33t31.5 17h410q170 0 289 -120t119 -290q0 -121 -64.5 -221.5t-171.5 -149.5l20 -10q82 -47 137.5 -127t55.5 -217t39 -176h8q36 0 47 -33q2 -9 2 -17q0 -35 -35 -48h-4l-20 -2h-4q-131 0 -131 301q0 131 -117 217q-84 59 -172 73q-2 2 -4 2h-348 v-567q0 -20 -15.5 -34.5t-36 -14.5t-35 14.5t-14.5 34.5zM285 715h362q125 4 213 94t88 217t-91 217t-218 90h-354v-618z" />
<glyph unicode="S" horiz-adv-x="1366" d="M147 268q12 14 31 16.5t33 -10.5q229 -184 466 -184h5q188 0 315 94q123 88 123 213q0 229 -448 314h-4q-485 90 -486 370q0 160 146.5 266.5t349.5 106.5q88 0 177 -29.5t138 -57.5t127 -79q23 -15 23 -35q1 -13 -9 -27q-14 -23 -35 -23q-13 0 -28 9q-74 47 -120 74 t-122.5 52.5t-150.5 25.5q-172 0 -293 -86q-113 -84 -113 -197q4 -205 414 -282h4q236 -43 365 -131q158 -102 158 -270q1 -170 -159 -286q-158 -114 -372 -114q-270 2 -528 207q-18 16 -18 34q0 14 11 29z" />
<glyph unicode="T" horiz-adv-x="1327" d="M102 1384.5q0 20.5 14.5 35t35.5 14.5h962q20 0 34.5 -14.5t14.5 -35t-14 -36t-35 -15.5h-432v-1284q0 -20 -14.5 -34.5t-35 -14.5t-34.5 14.5t-14 34.5v1284h-432q-20 0 -35 15.5t-15 36z" />
<glyph unicode="U" horiz-adv-x="1667" d="M215 580v804q0 20 14.5 35t35 15t35.5 -14.5t15 -35.5v-804q0 -199 140.5 -338.5t339.5 -139.5t339 139.5t140 338.5v804q0 20 14.5 35t34.5 15t35.5 -14.5t15.5 -35.5v-804q0 -240 -170 -410t-409.5 -170t-409.5 170t-170 410z" />
<glyph unicode="V" horiz-adv-x="1536" d="M125 1356q-4 9 -4 18.5t4 19.5q9 20 27 28q10 5 19 4q9 0 19 -4q20 -8 27 -25l512 -1221l514 1221q5 17 25 25q9 4 19 4q9 0 19 -4q18 -8 27 -28q4 -10 4 -19.5t-4 -18.5l-555 -1311q-4 -31 -28 -41h-2q-12 -4 -32.5 -4t-31.5 29q-2 0 -2 4l-2 2z" />
<glyph unicode="W" horiz-adv-x="2256" d="M134 1394q8 20 26 28q10 5 19 4q9 0 19 -4q20 -8 27 -25l512 -1219l365 862q16 31 49 31t49 -31l363 -862l512 1219q16 31 41 31q12 0 26 -7q18 -7 26 -27q4 -9 3 -19q0 -10 -4 -19l-557 -1323q-12 -29 -41 -33h-10q-27 0 -41 29q0 4 -2 6l-365 866l-367 -866 q0 -10 -14 -25q-20 -10 -36.5 -10t-30 13.5t-15.5 27.5l-553 1315q-4 10 -4 20q0 9 3 18z" />
<glyph unicode="X" horiz-adv-x="1478" d="M157 1384q3 22 19 33q13 10 29 10q4 0 9 -1q22 -3 32 -19l444 -610l445 610q18 22 38 22q15 0 31 -14q16 -9 20 -31l2 -10q0 -16 -12 -28l-462 -633l462 -633q11 -13 11 -28q-1 -4 -1 -8q-4 -20 -20 -32t-34.5 -12t-34.5 23l-445 608l-444 -608q-12 -23 -33 -23t-37 10 q-23 17 -23 37q0 16 15 33l461 633l-461 633q-12 13 -12 30q0 4 1 8z" />
<glyph unicode="Y" horiz-adv-x="1236" d="M125 1346q-11 18 -11 33q0 21 21 36q13 12 30 12q4 0 8 -1q22 -3 32 -19l448 -616l451 616q10 16 32 19q4 1 7 1q17 0 31 -12q16 -10 19 -31q1 -5 1 -9q0 -16 -10 -29l-479 -654v-643q0 -20 -14.5 -34.5t-35 -14.5t-35 14.5t-14.5 34.5v639z" />
<glyph unicode="Z" horiz-adv-x="1366" d="M152 1376.5q0 20.5 14 34.5t35 14h952q7 2 13 2q22 0 42 -20q12 -14 12 -29.5t-12 -31.5l-911 -1246h872q20 0 35 -14t15 -35.5t-14.5 -36t-35.5 -14.5h-972l-15 2q-33 17 -33 44q0 10 5 22q6 12 12 18l903 1241h-868q-20 0 -34.5 14.5t-14.5 35z" />
<glyph unicode="[" horiz-adv-x="880" d="M201 -213v1593q0 20 16 37t37 17h475q16 0 27.5 -12.5t11.5 -27t-11.5 -26.5t-27.5 -12h-434v-1544h434q16 0 27.5 -12.5t11.5 -27t-11.5 -26.5t-27.5 -12h-475q-20 0 -36.5 16.5t-16.5 36.5z" />
<glyph unicode="\" horiz-adv-x="917" d="M136 1400.5q7 18.5 28 26.5q43 16 65 -26l559 -1327q19 -45 -26 -68q-6 -2 -29.5 -2t-36.5 31l-559 1327q-8 20 -1 38.5z" />
<glyph unicode="]" horiz-adv-x="880" d="M113 -227.5q0 14.5 11 27t28 12.5h434v1544h-434q-16 0 -27.5 12t-11.5 26.5t11 27t28 12.5h475q20 0 36.5 -17t16.5 -37v-1593q0 -20 -16.5 -36.5t-36.5 -16.5h-475q-16 0 -27.5 12t-11.5 26.5z" />
<glyph unicode="^" horiz-adv-x="1024" d="M164 1024q0 12 10 27l272 360q31 37 58 37h16q27 0 58 -37l272 -360q10 -14 10 -27q0 -23 -42 -23t-62 29l-246 322l-246 -322q-20 -29 -60 -29t-40 23z" />
<glyph unicode="_" horiz-adv-x="1228" d="M-49 -282.5q0 18.5 13 31.5t32 13h1237q18 0 31.5 -13t13.5 -31.5t-13.5 -32t-31.5 -13.5h-1237q-18 0 -31.5 13.5t-13.5 32z" />
<glyph unicode="`" horiz-adv-x="1024" d="M333.5 1435q0.5 15 29 30.5t59.5 15.5t55 -37l127 -191q8 -12 8 -22q0 -18 -31.5 -18.5t-60.5 26.5l-164 158q-23 23 -22.5 38z" />
<glyph unicode="a" horiz-adv-x="1267" d="M82 502q0 207 139 354.5t336 147.5q113 0 212 -53.5t165 -143.5v147q0 20 14.5 35t35 15t34.5 -14.5t14 -35.5v-905q0 -20 -14 -34.5t-34.5 -14.5t-35 14.5t-14.5 34.5v150q-66 -92 -165 -145.5t-212 -53.5q-197 0 -336 147.5t-139 354.5zM180 502q0 -168 111.5 -286 t266.5 -118t265.5 118t110.5 286t-110.5 286.5t-265.5 118.5t-266.5 -118.5t-111.5 -286.5z" />
<glyph unicode="b" horiz-adv-x="1351" d="M190 49v1335q0 20 14.5 35t35 15t36 -14.5t15.5 -35.5v-577q68 90 168 143.5t217 53.5q203 0 344 -147.5t141 -355.5t-141 -354.5t-344 -146.5q-117 0 -217.5 52t-167.5 143v-146q0 -20 -15.5 -34.5t-36 -14.5t-35 14.5t-14.5 34.5zM291 500q0 -166 113.5 -283 t272.5 -117t271.5 117t112.5 284t-112.5 284.5t-270.5 117.5t-269.5 -112.5t-117.5 -274.5v-16z" />
<glyph unicode="c" horiz-adv-x="1169" d="M119 503q0 210 150.5 355.5t348 145.5t336.5 -111q16 -11 18 -31q0 -3 1 -6q0 -17 -12 -31q-18 -20 -37 -20q-15 0 -31 12q-113 90 -272.5 90t-281.5 -118.5t-122 -286.5t122 -286t280.5 -118t273.5 88q16 11 30 11q21 0 39 -21q13 -16 13 -31q0 -20 -25 -39 q-137 -106 -315 -106q-215 0 -365.5 146.5t-150.5 356.5z" />
<glyph unicode="d" horiz-adv-x="1351" d="M123 501q0 208 141.5 355.5t343.5 147.5q117 0 217.5 -53.5t167.5 -143.5v577q0 20 15.5 35t36 15t35 -14.5t14.5 -35.5v-1335q0 -20 -14.5 -34.5t-35 -14.5t-36 14.5t-15.5 34.5v146q-68 -90 -168 -142.5t-217 -52.5q-203 0 -344 146.5t-141 354.5zM223 501 q0 -167 114 -284t270.5 -117t268 112t117.5 271v33q-6 162 -117.5 274.5t-268 112.5t-270.5 -117.5t-114 -284.5z" />
<glyph unicode="e" horiz-adv-x="1247" d="M119 501q0 208 142 355.5t340 147.5t335.5 -134t153.5 -333v-9q0 -20 -14.5 -32.5t-35.5 -12.5h-823q8 -164 121 -274.5t268 -110.5q100 0 186.5 49.5t137.5 133.5q15 25 36 25q14 0 30 -11q25 -17 25 -39q0 -13 -9 -29q-66 -104 -173.5 -165.5t-232.5 -61.5 q-203 0 -345 146.5t-142 354.5zM223 580h760q-25 141 -131.5 233t-246.5 92t-246.5 -91t-135.5 -234z" />
<glyph unicode="f" horiz-adv-x="741" d="M133 970.5q0 20.5 14.5 35t34.5 14.5h133v106q4 160 66 234q66 72 203 72q20 0 34.5 -15.5t14.5 -36t-14.5 -35t-34.5 -14.5q-94 0 -131 -42t-37 -163v-106h141q20 0 35.5 -14.5t15.5 -35t-15 -35.5t-36 -15h-141v-873q0 -20 -14.5 -34.5t-35 -14.5t-36 14.5t-15.5 34.5 v873h-133q-20 0 -34.5 15t-14.5 35.5z" />
<glyph unicode="g" horiz-adv-x="1351" d="M123 505q0 206 138 352.5t333 146.5q113 0 212 -53.5t163 -143.5v147q0 20 15 35t34.5 15t34 -15t14.5 -35v-874q0 -195 -138 -333t-335 -138q-100 0 -209 47q-27 19 -27 41q0 12 7 24q15 31 39 31q12 0 26 -8q78 -37 164 -37q156 0 265.5 108.5t109.5 264.5v123 q-63 -92 -161.5 -144.5t-213.5 -52.5q-197 0 -334 146.5t-137 352.5zM221 505q0 -167 109.5 -285t264.5 -118t264.5 118t109.5 286t-109.5 283.5t-264.5 115.5t-264.5 -116.5t-109.5 -283.5z" />
<glyph unicode="h" d="M190 49v1335q0 20 14.5 35t35 15t36 -14.5t15.5 -35.5v-528q125 148 309 148h2q183 0 304 -112q122 -112 122 -284v-559q0 -20 -15.5 -34.5t-36 -14.5t-34.5 14.5t-14 34.5v559q0 129 -92.5 212t-226.5 83t-226 -83t-92 -212v-565q0 -4 -8.5 -19.5t-28.5 -21.5 q-2 -2 -4 -2h-10q-49 0 -50 49z" />
<glyph unicode="i" horiz-adv-x="575" d="M193 49v905q0 20 14 35t35.5 15t36 -14.5t14.5 -35.5v-905q0 -20 -15.5 -34.5t-36 -14.5t-34.5 14.5t-14 34.5zM193 1235v47q0 20 14 34.5t34.5 14.5t36 -14t15.5 -35v-47q0 -23 -15.5 -38t-36 -15t-34.5 15t-14 38z" />
<glyph unicode="j" horiz-adv-x="509" d="M-10 -343.5q0 21.5 14 36t39 14.5t47.5 22.5t22.5 53.5v1169q0 20 15 36t35.5 16t35 -15.5t14.5 -36.5v-1169q0 -74 -50 -124t-124 -50q-21 0 -35 13t-14 34.5zM117 1235v47q0 20 16.5 34.5t35.5 14.5t33.5 -14t14.5 -35v-47q0 -20 -14.5 -35.5t-33.5 -15.5t-35.5 15.5 t-16.5 35.5z" />
<glyph unicode="k" horiz-adv-x="1146" d="M190 49v1335q0 20 14.5 35t35 15t36 -14.5t15.5 -35.5v-964l594 592q18 18 35 18t34 -18q17 -14 17 -35q0 -19 -17 -35l-387 -387l389 -473q15 -17 15 -34q0 -19 -19 -38q-12 -10 -36.5 -10t-34.5 18l-385 465l-205 -204v-230q0 -20 -15.5 -34.5t-36 -14.5t-35 14.5 t-14.5 34.5z" />
<glyph unicode="l" horiz-adv-x="509" d="M205 49v1335q0 20 14 35t34.5 15t36 -14.5t15.5 -35.5v-1335q0 -20 -15.5 -34.5t-36 -14.5t-34.5 14.5t-14 34.5z" />
<glyph unicode="m" horiz-adv-x="1947" d="M190 37v917q0 20 14.5 33.5t34 13.5t34 -13t14.5 -34v-96q121 143 309 143q115 0 210 -58t148 -155q55 96 151.5 154.5t209.5 58.5q168 0 287.5 -119.5t119.5 -287.5v-547q0 -18 -14 -32.5t-34.5 -14.5t-34 14.5t-13.5 32.5v547q-4 129 -94 220t-217 91t-218 -92 t-91 -219v-553l-2 -4v-4q-4 -14 -20.5 -23.5t-29.5 -9.5h-10l-16 8q-2 0 -9.5 8.5t-8.5 10.5t-2 5t-3 5v557q0 129 -90 220t-219 91t-219 -91t-90 -220v-547q0 -27 -23 -39q-8 -8 -20 -8h-13q-31 4 -41 37z" />
<glyph unicode="n" d="M190 37v915q0 20 14.5 34.5t35 14.5t34 -14t13.5 -35v-96q121 145 300 145t299 -119.5t120 -287.5v-545q0 -20 -14.5 -34.5t-35 -14.5t-35 14.5t-14.5 34.5v545q0 127 -90 218t-218 91t-218 -90t-94 -219v-553q-10 -41 -47 -41h-13q-23 6 -32 27q-2 2 -2 6z" />
<glyph unicode="o" horiz-adv-x="1280" d="M143 502q0 205 139.5 353.5t336 148.5t336 -148.5t139.5 -353.5t-139.5 -353.5t-336 -148.5t-336 148.5t-139.5 353.5zM242 503q0 -167 111.5 -286t265 -119t265 119t111.5 286t-111.5 285.5t-265 118.5t-265 -118.5t-111.5 -285.5z" />
<glyph unicode="p" horiz-adv-x="1351" d="M190 -371v1325q0 20 14.5 35t35 15t36 -14.5t15.5 -35.5v-145q66 90 166 142.5t215 52.5q203 0 344 -145.5t141 -351.5t-141.5 -353.5t-343.5 -147.5q-115 0 -215.5 53.5t-165.5 143.5v-574q0 -20 -15.5 -34.5t-36 -14.5t-35 14.5t-14.5 34.5zM291 506q0 -166 112.5 -283 t270.5 -117t270.5 117t112.5 283t-113 281.5t-268.5 115.5t-267 -110.5t-117.5 -270.5v-16z" />
<glyph unicode="q" horiz-adv-x="1351" d="M123 506q0 205 141.5 351.5t339.5 146.5q117 0 217.5 -53.5t167.5 -143.5v147q0 20 14.5 35t36 15t36 -14.5t14.5 -35.5v-1325q0 -20 -14.5 -34.5t-36 -14.5t-36 14.5t-14.5 34.5v574q-68 -92 -169 -145.5t-216 -53.5q-199 2 -340 149.5t-141 352.5zM223 506 q0 -166 111.5 -283t270.5 -117t271.5 117t112.5 283t-112.5 281.5t-271.5 115.5t-270.5 -115.5t-111.5 -281.5z" />
<glyph unicode="r" horiz-adv-x="899" d="M190 49v903q0 20 14.5 34.5t35 14.5t35 -14t14.5 -35v-221q8 16 14 25q157 245 400 245h2q20 0 34.5 -14t14.5 -34.5t-14.5 -35t-34.5 -14.5q-164 0 -291 -164q-74 -98 -121 -233q-4 -8 -4 -17v-440q0 -20 -14.5 -34.5t-35 -14.5t-35 14.5t-14.5 34.5z" />
<glyph unicode="s" horiz-adv-x="1007" d="M121 209q12 16 32.5 18t36.5 -12q160 -117 291 -117t207 62q75 50 75 118q1 70 -67 124q-66 54 -217 77l-4 2q-160 29 -227 78q-109 63 -109 180t109 197q98 68 246 68q59 0 119.5 -19.5t92 -37t87.5 -52.5q16 -12 20 -32.5t-6 -37t-30.5 -20.5t-37.5 6 q-51 35 -76.5 50.5t-74.5 32.5t-94 17q-119 0 -186.5 -54t-67.5 -113q0 -134 262 -175h4q133 -20 244 -82q113 -74 112 -196q0 -124 -112 -208q-112 -83 -252 -83q-195 2 -371 143q-19 17 -19 35q0 15 13 31z" />
<glyph unicode="t" horiz-adv-x="819" d="M86 950.5q0 20.5 2 28.5q6 25 47 25h125v372q0 18 15.5 33.5t35 15.5t35.5 -15t16 -34v-372h130q18 0 33.5 -15.5t15.5 -34t-15.5 -34t-33.5 -15.5h-130v-731q0 -33 26 -53.5t46.5 -20.5t36.5 -16t16 -34.5t-16 -34t-35 -15.5q-76 0 -126 49t-50 125v731h-125 q-33 0 -41 12.5t-8 33z" />
<glyph unicode="u" d="M170 410v546q0 20 14.5 35t35 15t34.5 -14.5t14 -35.5v-546q0 -129 90.5 -219.5t218 -90.5t219 90.5t91.5 219.5v546q0 20 15.5 35t35.5 15t34.5 -14.5t14.5 -35.5v-546q0 -170 -119.5 -290t-289.5 -120t-289 120t-119 290z" />
<glyph unicode="v" horiz-adv-x="1191" d="M119 928q-4 9 -4 18.5t4 18.5q14 32 39 32q10 0 22 -6q20 -8 27 -26l334 -791l333 791q6 18 26 26q10 4 19.5 4t18.5 -4q30 -13 30 -39q0 -11 -5 -24l-375 -889q-2 -12 -13.5 -25.5t-29 -13.5t-33.5 8q-12 12 -16 23z" />
<glyph unicode="w" horiz-adv-x="1763" d="M129 928q-4 9 -4 18.5t4 18.5q14 32 40 32q11 0 24 -6q18 -8 24 -26l334 -791l231 551q14 31 48 31t49 -31l231 -551l332 791q8 18 28 26q10 4 19 4t17 -4q18 -9 26 -27q4 -9 4 -18t-4 -18l-375 -893q-6 -14 -19.5 -24.5t-23.5 -10.5h-10q-33 4 -39 31l-2 2l-234 555 l-231 -553q-2 -2 -2 -4q-10 -31 -35.5 -31t-34.5 8q-14 6 -20 23z" />
<glyph unicode="x" horiz-adv-x="1167" d="M152 78l307 420l-307 422q-10 17 -10 32q0 21 20 37q11 8 26 8q6 0 10 -1q22 -3 31 -19l291 -395l289 395q11 16 31 19q4 1 9 1q14 0 25 -8q24 -17 24 -39q0 -14 -9 -30l-309 -422l309 -420q11 -16 11 -30q0 -22 -26 -38q-10 -10 -31.5 -10t-33.5 20l-289 396l-291 -396 q-12 -20 -31.5 -20t-35.5 10q-20 17 -20 37q0 15 10 31z" />
<glyph unicode="y" horiz-adv-x="1204" d="M106 412v544q0 20 14.5 34t35 14t35 -13.5t14.5 -34.5v-544q0 -129 90 -219.5t218 -90.5t218 90.5t92 219.5v544q0 15 13 31q0 8 20 14h4l6 3h13q43 -10 43 -48v-876q0 -197 -139.5 -334t-338.5 -137q-102 0 -206 47q-28 18 -28 41q0 11 6 23q15 29 45 29q9 0 20 -3 q78 -39 163 -39q156 0 266.5 108.5t112.5 264.5v65q-126 -142 -301 -142h-2q-176 1 -295 121t-119 288z" />
<glyph unicode="z" horiz-adv-x="1134" d="M125 49v2q0 23 16 35l592 811h-559q-20 0 -34.5 14.5t-14.5 35t14.5 34.5t34.5 14h649h5q22 1 40 -17q14 -14 14 -30q0 -6 -2 -12q-8 -22 -22 -29l-590 -809h561q20 0 35 -14t15 -34.5t-14.5 -35t-35.5 -14.5h-655q-49 0 -49 49z" />
<glyph unicode="{" horiz-adv-x="983" d="M113 588q0 39 49 39q150 0 204 64.5t54 195.5v162q0 172 84 267t327 144q18 4 30.5 -5t12.5 -30.5t-24 -29.5q-213 -55 -271.5 -126t-58.5 -233v-153q0 -129 -54 -197t-159 -98q111 -37 162 -101.5t51 -193.5v-154q0 -162 58.5 -232.5t271.5 -125.5q25 -8 24.5 -29.5 t-13 -31t-30.5 -5.5q-244 49 -327.5 144.5t-83.5 267.5v162q0 131 -54.5 195.5t-203.5 64.5q-49 0 -49 39z" />
<glyph unicode="|" horiz-adv-x="585" d="M248 -225v1822q0 18 13 31.5t31.5 13.5t32 -13t13.5 -32v-1822q0 -18 -13.5 -31.5t-32 -13.5t-31.5 13.5t-13 31.5z" />
<glyph unicode="}" horiz-adv-x="983" d="M108.5 1424.5q0.5 21.5 13 30.5t30.5 5q244 -49 327.5 -144t83.5 -267v-162q0 -131 54.5 -195.5t203.5 -64.5q49 0 49 -39t-49 -39q-150 0 -204 -64.5t-54 -195.5v-162q0 -172 -84 -267.5t-327 -144.5q-18 -4 -30.5 5.5t-12.5 31t24 29.5q213 55 271.5 125.5t58.5 232.5 v154q0 129 54 196.5t159 98.5q-111 37 -162 101.5t-51 193.5v153q0 162 -58.5 232.5t-271.5 126.5q-25 8 -24.5 29.5z" />
<glyph unicode="~" horiz-adv-x="942" d="M174 526q0 12 4 25q29 86 67 120t87 34t143 -42t127 -42t53.5 17t38.5 60q14 29 37 29q37 0 37 -35q0 -12 -4 -24q-29 -86 -67 -120t-87 -34t-143 42t-127 42t-53.5 -17.5t-38.5 -60.5q-14 -29 -37 -28q-37 0 -37 34z" />
<glyph unicode="&#xa1;" horiz-adv-x="516" d="M190 49v1028q0 20 14.5 35.5t36 15.5t36 -15t14.5 -36v-1028q0 -20 -15.5 -34.5t-36 -14.5t-35 14.5t-14.5 34.5zM190 1335v49q0 20 14.5 35t35 15t36 -14.5t15.5 -35.5v-49q0 -20 -15.5 -34.5t-36 -14.5t-35 14.5t-14.5 34.5z" />
<glyph unicode="&#xa2;" horiz-adv-x="1189" d="M127 723v4q0 221 155.5 384t376.5 163h31l27 139q8 41 49 41q25 0 40 -18.5t9 -44.5l-27 -131q135 -33 265 -154q18 -18 18 -41t-14.5 -37t-36 -14t-37.5 16q-111 109 -219 135l-172 -884q37 -6 74 -7q178 0 327 150q18 18 38 18t33 -14t13 -32.5t-14 -33.5 q-172 -182 -404 -182q-53 0 -79 4l-33 -164q-8 -41 -41 -40.5t-48 18.5t-9 45l34 168q-160 55 -258 196.5t-98 315.5zM236 727q0 -143 75.5 -258t196.5 -164l168 875h-19q-178 0 -299.5 -130t-121.5 -319v-4z" />
<glyph unicode="&#xa3;" horiz-adv-x="1318" d="M135 24.5q0 24.5 25 30.5l159 37v533h-135q-20 0 -34.5 14t-14.5 34.5t14.5 35t34.5 14.5h135v242q0 238 126 363.5t315 125.5q248 0 409 -190q14 -18 14.5 -39t-14 -35t-37 -14t-40.5 18q-70 80 -146 122t-204 42t-223 -95.5t-95 -295.5v-244h569q20 0 34.5 -14.5 t14.5 -35t-14 -34.5t-35 -14h-569v-529h725q20 0 34.5 -14t14.5 -34.5t-14.5 -34t-34.5 -13.5h-987q-27 0 -27 24.5z" />
<glyph unicode="&#xa5;" horiz-adv-x="1404" d="M123 1346q-27 43 10 69q16 14 38 11t32 -19l448 -616l451 616q10 16 31.5 19.5t37.5 -11.5q16 -10 19.5 -31.5t-8.5 -37.5l-422 -574h258q25 0 41 -16.5t16 -40t-16.5 -40t-40.5 -16.5h-316v-204h316q25 0 41 -16.5t16 -40t-16.5 -40t-40.5 -16.5h-316v-293 q0 -20 -14 -34.5t-34.5 -14.5t-35 14.5t-14.5 34.5v293h-315q-25 0 -41.5 16.5t-16.5 40t16.5 40t41.5 16.5h315v204h-315q-25 0 -41.5 16.5t-16.5 40t16.5 40t41.5 16.5h254z" />
<glyph unicode="&#xa8;" horiz-adv-x="1024" d="M272 1304.5q0 36.5 26 62.5t62.5 26t62.5 -26t26 -62.5t-26 -62t-62.5 -25.5t-62.5 25.5t-26 62zM610 1304.5q0 36.5 26 62.5t62.5 26t62 -26t25.5 -62.5t-25.5 -62t-62 -25.5t-62.5 25.5t-26 62z" />
<glyph unicode="&#xa9;" horiz-adv-x="1699" d="M109 713v4q0 305 217 523t526 218t524 -216t215 -521v-4q0 -305 -217 -523.5t-526 -218.5t-524 216.5t-215 521.5zM170 713q0 -283 194.5 -481.5t483.5 -198.5t485.5 199.5t196.5 484.5v4q0 283 -194.5 481.5t-483.5 198.5t-485.5 -200t-196.5 -484v-4zM485 725v4 q0 158 108.5 272.5t261.5 114.5t269 -102q18 -14 18.5 -35t-13 -33t-30 -12t-34.5 14q-100 86 -214 86t-195 -89t-81 -214v-4q0 -125 83 -215t201 -90t218 90q16 10 30.5 10t27 -12t12.5 -30.5t-14 -28.5q-127 -111 -280 -111t-260.5 112.5t-107.5 272.5z" />
<glyph unicode="&#xaa;" horiz-adv-x="798" d="M119 1098q0 131 88 224t224 93t228 -125v94q0 12 9.5 21.5t21.5 9.5t22.5 -9t10.5 -22v-575q0 -12 -10.5 -21.5t-22.5 -9.5t-21.5 9.5t-9.5 21.5v96q-92 -127 -228 -127t-224 94.5t-88 225.5zM176 641q0 16 12.5 28.5t28.5 12.5h451q16 0 28.5 -12.5t12.5 -28.5 t-12.5 -28.5t-28.5 -12.5h-451q-16 0 -28.5 12.5t-12.5 28.5zM182 1096.5q0 -107.5 70 -181t169 -73.5t168.5 73.5t69.5 181t-69.5 182.5t-167.5 75t-169 -75t-71 -182.5z" />
<glyph unicode="&#xab;" horiz-adv-x="1054" d="M113 522.5q0 18.5 20 44.5l281 367q16 23 36.5 22.5t34 -12.5t13.5 -30.5t-13 -34.5l-258 -355l258 -358q12 -14 12.5 -33.5t-13 -32t-34 -12.5t-36.5 23l-281 366q-20 27 -20 45.5zM530.5 522.5q-0.5 18.5 20.5 44.5l280 367q16 23 37 22.5t34 -12.5t13 -30.5t-12 -34.5 l-258 -355l258 -358q12 -18 12 -35q-4 -43 -45 -43q-23 0 -39 23l-280 366q-20 27 -20.5 45.5z" />
<glyph unicode="&#xad;" horiz-adv-x="835" d="M135 711q0 39 39 39h436q39 0 39 -37q0 -18 -11 -29.5t-28 -11.5h-436q-39 0 -39 39z" />
<glyph unicode="&#xae;" horiz-adv-x="851" d="M70 1094v2q0 147 104.5 252.5t252.5 105.5t251.5 -104.5t103.5 -251.5v-2q0 -148 -104.5 -253.5t-253 -105.5t-251.5 104.5t-103 252.5zM111 1094q0 -131 91 -224.5t224 -93.5t224 94.5t91 225.5v2q0 131 -91 224t-224 93t-224 -94t-91 -225v-2zM295 881 q0 -16 16.5 -16.5t16.5 16.5v178h108l2 -2q90 -22 90 -92q0 -94 41 -95h2l9 2q12 4 8 21q-4 10 -17 10q-12 6 -12 68.5t-61 95.5q-4 0 -6 2q74 35 73 117q0 53 -36.5 91t-90.5 38h-129q-14 0 -14 -17v-417zM328 1090v192h110q41 0 69 -28.5t28 -67.5t-28 -67.5t-67 -28.5 h-112z" />
<glyph unicode="&#xb0;" horiz-adv-x="921" d="M152 1143v4q0 119 93 209t216 90t216 -90t93 -209v-4q0 -119 -93 -209t-216 -90t-216 90t-93 209zM254 1143q0 -84 59.5 -146.5t147.5 -62.5t147.5 62.5t59.5 146.5v4q0 84 -59.5 146.5t-147.5 62.5t-147.5 -62.5t-59.5 -146.5v-4z" />
<glyph unicode="&#xb2;" horiz-adv-x="811" />
<glyph unicode="&#xb4;" horiz-adv-x="1024" d="M412 1231q0 10 8 22l127 191q25 37 55.5 37t59 -15.5t28.5 -31t-22 -37.5l-164 -158q-29 -27 -60.5 -27t-31.5 19z" />
<glyph unicode="&#xb6;" horiz-adv-x="983" d="M109 999v5q0 199 147 314.5t383 115.5h96q23 0 39.5 -16.5t16.5 -39.5v-1333q0 -23 -15.5 -38t-38 -15t-39 15t-16.5 38v522h-12q-244 0 -402.5 116t-158.5 316z" />
<glyph unicode="&#xb7;" horiz-adv-x="471" d="M168 582v55q0 29 19.5 48.5t48 19.5t48 -19.5t19.5 -48.5v-55q0 -29 -19.5 -48.5t-48 -19.5t-48 19.5t-19.5 48.5z" />
<glyph unicode="&#xb8;" horiz-adv-x="1024" d="M348 -243.5q0 14.5 10 32.5l158 231h88l-133 -270q-20 -41 -49 -41t-51.5 16.5t-22.5 31z" />
<glyph unicode="&#xba;" horiz-adv-x="798" d="M96 641q0 16 12.5 28.5t28.5 12.5h525q16 0 28 -12.5t12 -28.5t-12 -28.5t-28 -12.5h-525q-16 0 -28.5 12.5t-12.5 28.5zM104 1139v4q0 123 85 212t211 89t210 -87t84 -210v-4q0 -123 -85 -212t-211 -89t-210 87t-84 210zM193 1143q0 -92 60 -156.5t149.5 -64.5 t146.5 63.5t57 153.5v4q0 92 -60.5 156.5t-149.5 64.5t-146 -63.5t-57 -153.5v-4z" />
<glyph unicode="&#xbb;" horiz-adv-x="1054" d="M139 131.5q0 18.5 13 34.5l258 354l-258 359q-14 20 -13 34q4 43 45 43q23 0 39 -22l281 -367q20 -27 20 -45t-20 -45l-281 -366q-16 -23 -36.5 -23t-34 12.5t-13.5 31zM557 131.5q0 18.5 12 34.5l258 354l-258 359q-12 16 -12 34.5t13.5 30.5t34 12t36.5 -22l281 -367 q20 -27 20 -45t-20 -45l-281 -366q-16 -23 -36.5 -23t-34 12.5t-13.5 31z" />
<glyph unicode="&#xbf;" horiz-adv-x="1093" d="M115 256.5q4 19.5 21.5 30t37 5.5t29.5 -22q45 -80 124 -127t175 -47q145 2 245.5 102.5t100.5 245t-101.5 246t-244.5 101.5q-18 0 -32.5 13t-14.5 34v264q0 20 14 33.5t33.5 13.5t34 -13.5t14.5 -33.5v-219q166 -18 279.5 -144.5t113.5 -302.5t-130 -306t-312 -130 q-121 0 -222.5 59.5t-158.5 161.5q-10 16 -6 35.5zM455 1341v45q0 20 14 34t33.5 14t34 -13.5t14.5 -34.5v-45q0 -20 -14.5 -34.5t-34 -14.5t-33.5 14.5t-14 34.5z" />
<glyph unicode="&#xc0;" horiz-adv-x="1329" d="M123 68q-8 -18 1.5 -38t27.5 -28l18 -2q35 0 47 33l127 338h653l127 -338q12 -33 47 -33l19 2q18 8 26.5 27.5t0.5 38.5l-498 1329q-10 31 -47 30.5t-51 -30.5zM381 471l291 770l289 -770h-580zM530 1844.5q0 15.5 29 30.5t59.5 15t55.5 -37l127 -190q8 -13 8 -23 q0 -18 -32 -18t-60 27l-164 157q-23 23 -23 38.5z" />
<glyph unicode="&#xc1;" horiz-adv-x="1323" d="M123 68q-8 -18 1.5 -38t27.5 -28l18 -2q35 0 47 33l127 338h653l127 -338q12 -33 47 -33l19 2q18 8 26.5 27.5t0.5 38.5l-498 1329q-10 31 -47 30.5t-51 -30.5zM381 471l291 770l289 -770h-580zM532 1640q0 10 9 23l127 190q25 37 55.5 37t59 -15t28.5 -30.5t-23 -38.5 l-163 -157q-29 -27 -61 -27t-32 18z" />
<glyph unicode="&#xc2;" horiz-adv-x="1359" d="M125 68q-8 -18 1.5 -38t27.5 -28l18 -2q35 0 47 33l127 338h653l127 -338q12 -33 48 -33l18 2q18 8 26.5 27.5t0.5 38.5l-498 1329q-10 31 -47 30.5t-51 -30.5zM383 471l291 770l289 -770h-580zM451 1642q0 12 10 25l147 180q31 37 58 37h16q27 0 57 -37l148 -180 q10 -12 10 -25q0 -20 -34 -20t-62 27l-129 118l-129 -118q-29 -27 -60.5 -27t-31.5 20z" />
<glyph unicode="&#xc3;" horiz-adv-x="1359" d="M125 68q-8 -18 1.5 -38t27.5 -28l18 -2q35 0 47 33l127 338h653l127 -338q12 -33 48 -33l18 2q18 8 26.5 27.5t0.5 38.5l-498 1329q-10 31 -47 30.5t-51 -30.5zM377 1640q0 12 4 25q29 86 66.5 120t86 34t142.5 -42t128 -42t54.5 17t38.5 60q14 29 37 29q37 0 37 -35 q0 -12 -4 -24q-52 -154 -153 -154q-48 0 -143.5 42t-128 42t-53 -17.5t-38.5 -60.5q-14 -29 -37 -28q-37 0 -37 34zM383 471l291 770l289 -770h-580z" />
<glyph unicode="&#xc4;" horiz-adv-x="1357" d="M125 68q-8 -18 1.5 -38t27.5 -28l18 -2q35 0 47 33l127 338h653l127 -338q12 -33 48 -33l18 2q18 8 26.5 27.5t0.5 38.5l-498 1329q-10 31 -47 30.5t-51 -30.5zM383 471l291 770l289 -770h-580zM418 1714q0 37 25.5 62.5t62.5 25.5t62.5 -25.5t25.5 -62.5t-25.5 -62.5 t-62.5 -25.5t-62.5 25.5t-25.5 62.5zM756 1714q0 37 25.5 62.5t62.5 25.5t62.5 -25.5t25.5 -62.5t-25.5 -62.5t-62.5 -25.5t-62.5 25.5t-25.5 62.5z" />
<glyph unicode="&#xc5;" horiz-adv-x="1323" d="M98 68l461 1228q-92 53 -92 152v2q0 74 55.5 127t129 53t130 -53t56.5 -127v-2q0 -104 -105 -158l459 -1222q8 -18 0 -38t-27 -28l-18 -2q-35 0 -47 33l-127 338h-654l-126 -338q-13 -33 -48 -33l-18 2q-18 8 -27.5 27.5t-1.5 38.5zM356 471h580l-289 770zM555 1448 q0 -43 30.5 -68.5t61.5 -25.5t67 21.5t36 72.5v2q0 39 -29 69.5t-69 30.5t-68.5 -30.5t-28.5 -69.5v-2z" />
<glyph unicode="&#xc6;" horiz-adv-x="2140" d="M72 34.5q0 16.5 10 33.5l807 1333q20 33 53 33h1018q20 0 34.5 -14.5t14.5 -35t-14.5 -35t-34.5 -14.5h-842v-563h750q20 0 34.5 -14.5t14.5 -35t-14.5 -34.5t-34.5 -14h-750v-576h852q20 0 34.5 -14t14.5 -34.5t-14 -35t-35 -14.5h-905q-20 0 -36.5 16.5t-16.5 36.5v348 h-615l-231 -385q-16 -27 -41 -26.5t-39 14.5t-14 30.5zM455 498h557v839h-54z" />
<glyph unicode="&#xc7;" horiz-adv-x="1579" d="M150 726q0 302 218 514t527 214q258 0 463 -158q16 -14 19 -35.5t-11 -35.5q-12 -18 -33.5 -20.5t-36.5 9.5q-178 139 -401 140q-268 0 -456.5 -184.5t-188.5 -444.5t188.5 -442.5t439 -182.5t414.5 140q18 12 40 9t32 -22q14 -14 12 -36.5t-18 -34.5 q-203 -156 -463 -156q-309 0 -527 212t-218 514zM661 -243.5q0 14.5 10 32.5l158 231h88l-133 -270q-20 -41 -49 -41t-51.5 16.5t-22.5 31z" />
<glyph unicode="&#xc8;" horiz-adv-x="1214" d="M213 49q0 -20 13.5 -33.5t31.5 -15.5h741q20 0 35 14.5t15 36t-14.5 35.5t-35.5 14h-686v566h600q20 0 35 14t15 34.5t-14.5 36t-35.5 15.5h-600v567h686q20 0 35 14.5t15 36t-14.5 36t-35.5 14.5h-737q-20 0 -34.5 -14.5t-14.5 -35.5v-1335zM493.5 1844.5 q0.5 15.5 29 30.5t59 15t55.5 -37l127 -190q8 -13 8 -23q0 -18 -31.5 -18t-60.5 27l-164 157q-23 23 -22.5 38.5z" />
<glyph unicode="&#xc9;" horiz-adv-x="1214" d="M213 49q0 -20 13.5 -33.5t31.5 -15.5h741q20 0 35 14.5t15 36t-14.5 35.5t-35.5 14h-686v566h600q20 0 35 14t15 34.5t-14.5 36t-35.5 15.5h-600v567h686q20 0 35 14.5t15 36t-14.5 36t-35.5 14.5h-737q-20 0 -34.5 -14.5t-14.5 -35.5v-1335zM487 1640q0 10 9 23l127 190 q25 37 55.5 37t59 -15t28.5 -30.5t-23 -38.5l-163 -157q-29 -27 -61 -27t-32 18z" />
<glyph unicode="&#xca;" horiz-adv-x="1214" d="M213 49v1335q0 20 14.5 35t34.5 15h737q20 0 35 -14.5t15 -36t-14.5 -36t-35.5 -14.5h-686v-567h600q20 0 35 -15.5t15 -36t-14.5 -34.5t-35.5 -14h-600v-566h686q20 0 35 -14t15 -35.5t-14.5 -36t-35.5 -14.5h-741q-18 2 -31.5 15.5t-13.5 33.5zM404 1643q0 12 10 24 l147 181q31 37 58 37h16q27 0 58 -37l147 -181q10 -12 10 -24q0 -20 -33.5 -20.5t-62.5 26.5l-129 119l-129 -119q-29 -27 -60.5 -27t-31.5 21z" />
<glyph unicode="&#xcb;" horiz-adv-x="1372" d="M213 49q0 -20 13.5 -33.5t31.5 -15.5h741q20 0 35 14.5t15 36t-14.5 35.5t-35.5 14h-686v566h600q20 0 35 14t15 34.5t-14.5 36t-35.5 15.5h-600v567h686q20 0 35 14.5t15 36t-14.5 36t-35.5 14.5h-737q-20 0 -34.5 -14.5t-14.5 -35.5v-1335zM371 1714q0 37 25.5 62.5 t62.5 25.5t62.5 -25.5t25.5 -62.5t-25.5 -62.5t-62.5 -25.5t-62.5 25.5t-25.5 62.5zM709 1714q0 37 25.5 62.5t62.5 25.5t62.5 -25.5t25.5 -62.5t-25.5 -62.5t-62.5 -25.5t-62.5 25.5t-25.5 62.5z" />
<glyph unicode="&#xcc;" horiz-adv-x="712" d="M303 1844.5q0 15.5 28.5 30.5t59.5 15t55 -37l127 -190q9 -13 9 -23q0 -18 -32 -18t-61 27l-163 157q-23 23 -23 38.5zM391 49q0 -20 14.5 -34.5t35 -14.5t36 14.5t15.5 34.5v1335q0 20 -15.5 35t-36 15t-35 -14.5t-14.5 -35.5v-1335z" />
<glyph unicode="&#xcd;" horiz-adv-x="561" d="M170 1640q0 10 8 23l127 190q25 37 55.5 37t59.5 -15t29 -30.5t-23 -38.5l-164 -157q-29 -27 -60.5 -27t-31.5 18zM260 49q0 -20 14.5 -34.5t35 -14.5t35.5 14.5t15 34.5v1335q0 20 -15 35t-35.5 15t-35 -14.5t-14.5 -35.5v-1335z" />
<glyph unicode="&#xce;" horiz-adv-x="561" d="M2 1642q0 12 10 25l148 180q31 37 57 37h16q27 0 58 -37l147 -180q10 -12 10.5 -28.5t-33.5 -16.5t-63 27l-129 118l-129 -118q-29 -27 -60.5 -27t-31.5 20zM176 49q0 -20 14.5 -34.5t35 -14.5t35.5 14.5t15 34.5v1335q0 20 -15 35t-35.5 15t-35 -14.5t-14.5 -35.5v-1335 z" />
<glyph unicode="&#xcf;" horiz-adv-x="561" d="M-16 1714q0 37 25.5 62.5t62.5 25.5t62.5 -25.5t25.5 -62.5t-25.5 -62.5t-62.5 -25.5t-62.5 25.5t-25.5 62.5zM190 49q0 -20 14.5 -34.5t35 -14.5t36 14.5t15.5 34.5v1335q0 20 -15.5 35t-36 15t-35 -14.5t-14.5 -35.5v-1335zM322 1714q0 37 25.5 62.5t62 25.5 t62.5 -25.5t26 -62.5t-26 -62.5t-62.5 -25.5t-62 25.5t-25.5 62.5z" />
<glyph unicode="&#xd0;" horiz-adv-x="1662" d="M113 715q0 39 39 39h172v630q0 20 14 35t35 15h268q297 0 507 -211t210 -508t-210 -506t-507 -209h-272q-18 2 -31.5 15.5t-13.5 33.5v627h-172q-39 0 -39 39zM424 100h217q256 0 436 180.5t180 435.5t-180 435t-436 182h-217v-579h164q39 0 39 -37q0 -18 -11.5 -29.5 t-27.5 -11.5h-164v-576z" />
<glyph unicode="&#xd1;" horiz-adv-x="1617" d="M219 49q0 -20 14.5 -34.5t35 -14.5t34.5 14.5t14 34.5v1174l861 -1196q24 -27 45.5 -27t37 14.5t15.5 34.5v1321q0 20 -15.5 34.5t-36 14.5t-34.5 -14t-14 -35v-1167l-869 1204q-10 16 -31.5 19.5t-44 -13t-12.5 -49.5v-1315zM449 1640q0 12 4 25q29 86 66.5 120t86.5 34 t143.5 -42t127 -42t53 17t39.5 60q14 29 37 29q37 0 36 -35q0 -12 -4 -24q-29 -86 -66.5 -120t-86.5 -34t-143.5 42t-127 42t-53.5 -17.5t-39 -60.5q-14 -29 -37 -28q-37 0 -36 34z" />
<glyph unicode="&#xd2;" horiz-adv-x="1740" d="M150 727q2 303 202.5 515t488 212t486.5 -212t199 -515t-199 -515t-486.5 -212t-488 212t-202.5 515zM250 728q0 -263 173 -445.5t414.5 -182.5t413.5 183.5t172 445.5t-171 442.5t-413.5 180.5t-415.5 -180.5t-173 -443.5zM700.5 1845q0.5 15 29 30.5t59.5 15.5t55 -37 l127 -191q8 -12 8 -22q0 -18 -31.5 -18.5t-60.5 26.5l-164 158q-23 23 -22.5 38z" />
<glyph unicode="&#xd3;" horiz-adv-x="1740" d="M152 727q0 -303 200.5 -515t488 -212t486.5 212t201 515q-2 303 -201 515t-486.5 212t-488 -212t-200.5 -515zM250 728q0 263 173 443.5t415.5 180.5t413.5 -180.5t171 -442.5t-172 -445.5t-413.5 -183.5t-414.5 182.5t-173 445.5zM696 1640q0 10 9 23l126 190 q25 37 56 37t59.5 -15t28.5 -30.5t-23 -38.5l-164 -157q-29 -27 -60.5 -27t-31.5 18z" />
<glyph unicode="&#xd4;" horiz-adv-x="1740" d="M150 727q2 303 202.5 515t488 212t486.5 -212t199 -515t-199 -515t-486.5 -212t-488 212t-202.5 515zM250 728q0 -263 173 -445.5t414.5 -182.5t413.5 183.5t172 445.5t-171 442.5t-413.5 180.5t-415.5 -180.5t-173 -443.5zM617 1643q0 12 10 24l147 181q31 37 58 37h16 q27 0 58 -37l147 -181q10 -12 10 -24q0 -20 -33.5 -20.5t-62.5 26.5l-129 119l-129 -119q-29 -27 -60.5 -27t-31.5 21z" />
<glyph unicode="&#xd5;" horiz-adv-x="1740" d="M152 727q0 -303 200.5 -515t488 -212t486.5 212t201 515q-2 303 -201 515t-486.5 212t-488 -212t-200.5 -515zM250 728q0 263 173 443.5t415.5 180.5t413.5 -180.5t171 -442.5t-172 -445.5t-413.5 -183.5t-414.5 182.5t-173 445.5zM541 1640q0 12 4 25q29 86 66.5 120 t85.5 34t142.5 -42t128 -42t54 17t39.5 60q14 29 37 29q37 0 37 -35q0 -12 -5 -24q-29 -86 -66.5 -120t-85.5 -34t-142.5 42t-128 42t-54.5 -17.5t-39 -60.5q-14 -29 -36 -28q-37 0 -37 34z" />
<glyph unicode="&#xd6;" horiz-adv-x="1740" d="M150 727q2 303 202.5 515t488 212t486.5 -212t199 -515t-199 -515t-486.5 -212t-488 212t-202.5 515zM250 728q0 -263 173 -445.5t414.5 -182.5t413.5 183.5t172 445.5t-171 442.5t-413.5 180.5t-415.5 -180.5t-173 -443.5zM581 1714.5q0 36.5 26 62.5t62.5 26t62.5 -26 t26 -62.5t-26 -62t-62.5 -25.5t-62.5 25.5t-26 62zM919 1714.5q0 36.5 26 62.5t62.5 26t62 -26t25.5 -62.5t-25.5 -62t-62 -25.5t-62.5 25.5t-26 62z" />
<glyph unicode="&#xd7;" horiz-adv-x="1269" d="M205 339.5q0 20.5 16 37.5l346 342l-344 340q-18 18 -18 40.5t14 37t37 14.5t41 -18l340 -345l342 347q16 16 36.5 16t35 -14.5t14.5 -35t-16 -36.5l-347 -342l345 -340q18 -18 18 -41t-14.5 -37t-37 -14t-40.5 18l-340 344l-342 -346q-16 -16 -37 -16t-35 14t-14 34.5z " />
<glyph unicode="&#xd8;" horiz-adv-x="1740" d="M150 713v4q0 303 202.5 522t519.5 219q270 0 467 -170l138 148q16 16 35.5 16t31.5 -12.5t12 -31.5t-12 -32l-141 -151q188 -207 188 -504v-4q0 -303 -203 -522.5t-520 -219.5q-272 0 -467 168l-137 -145q-16 -16 -35.5 -16t-32 12t-12.5 31.5t13 31.5l139 150 q-186 213 -186 506zM260 717q0 -250 152 -430l858 921q-170 154 -417 154t-420 -186.5t-173 -454.5v-4zM469 225q170 -154 418 -153.5t421 186.5t173 455v4q0 244 -152 428z" />
<glyph unicode="&#xd9;" horiz-adv-x="1556" d="M190 580q0 -240 170 -410t410 -170t410 170t170 410v804q0 20 -15.5 35t-36 15t-35 -14.5t-14.5 -35.5v-804q0 -199 -140 -338.5t-339 -139.5t-339 139.5t-140 338.5v804q0 20 -15.5 35t-36 15t-35 -14.5t-14.5 -35.5v-804zM630.5 1844.5q0.5 15.5 29 30.5t59.5 15 t55 -37l127 -190q8 -13 8 -23q0 -18 -31.5 -18t-60.5 27l-164 157q-23 23 -22.5 38.5z" />
<glyph unicode="&#xda;" horiz-adv-x="1556" d="M190 580q0 -240 170 -410t410 -170t410 170t170 410v804q0 20 -15.5 35t-36 15t-35 -14.5t-14.5 -35.5v-804q0 -199 -140 -338.5t-339 -139.5t-339 139.5t-140 338.5v804q0 20 -15.5 35t-36 15t-35 -14.5t-14.5 -35.5v-804zM631 1640q0 10 8 23l127 190q25 37 55.5 37 t59 -15t28.5 -30.5t-22 -38.5l-164 -157q-29 -27 -60.5 -27t-31.5 18z" />
<glyph unicode="&#xdb;" horiz-adv-x="1556" d="M190 580q0 -240 170 -410t410 -170t410 170t170 410v804q0 20 -15.5 35t-36 15t-35 -14.5t-14.5 -35.5v-804q0 -199 -140 -338.5t-339 -139.5t-339 139.5t-140 338.5v804q0 20 -15.5 35t-36 15t-35 -14.5t-14.5 -35.5v-804zM549 1642q0 12 10 25l148 180q31 37 57 37h16 q27 0 58 -37l147 -180q10 -12 10 -25q0 -20 -33.5 -20t-62.5 27l-129 118l-129 -118q-29 -27 -60.5 -27t-31.5 20z" />
<glyph unicode="&#xdc;" horiz-adv-x="1556" d="M190 580q0 -240 170 -410t410 -170t410 170t170 410v804q0 20 -15.5 35t-36 15t-35 -14.5t-14.5 -35.5v-804q0 -199 -140 -338.5t-339 -139.5t-339 139.5t-140 338.5v804q0 20 -15.5 35t-36 15t-35 -14.5t-14.5 -35.5v-804zM514 1714q0 37 25.5 62.5t62.5 25.5 t62.5 -25.5t25.5 -62.5t-25.5 -62.5t-62.5 -25.5t-62.5 25.5t-25.5 62.5zM852 1714q0 37 25.5 62.5t62.5 25.5t62.5 -25.5t25.5 -62.5t-25.5 -62.5t-62.5 -25.5t-62.5 25.5t-25.5 62.5z" />
<glyph unicode="&#xdd;" horiz-adv-x="1466" d="M125 1346l481 -658v-639q0 -20 14.5 -34.5t35 -14.5t35 14.5t14.5 34.5v643l479 654q12 16 9 37.5t-19 33.5t-38 9t-32 -19l-451 -616l-448 616q-10 16 -31.5 19.5t-38.5 -11.5q-37 -27 -10 -69zM516 1640q0 10 8 23l127 190q25 37 55.5 37t59.5 -15t29 -30.5t-23 -38.5 l-164 -157q-29 -27 -60.5 -27t-31.5 18z" />
<glyph unicode="&#xde;" horiz-adv-x="1378" d="M213 45v1344q0 20 16.5 36.5t37 16.5t36.5 -16.5t16 -36.5v-215h414q240 0 386.5 -117t146.5 -322v-4q0 -217 -161 -338t-398 -121h-388v-227q0 -20 -16 -36.5t-36.5 -16.5t-37 16.5t-16.5 36.5zM319 371h394q201 0 323.5 97t122.5 257v4q0 166 -117.5 256t-316.5 90 h-406v-704z" />
<glyph unicode="&#xdf;" horiz-adv-x="1269" d="M190 41v983q0 215 123 350t316.5 135t306.5 -102t113 -256v-4q0 -139 -93.5 -239.5t-228.5 -149.5q180 -31 297 -122t117 -245v-4q0 -182 -141.5 -282.5t-372.5 -108.5q-16 0 -29.5 13.5t-13.5 31.5t12 30.5t31 14.5q184 10 294.5 84t110.5 213v4q0 131 -109.5 208 t-287.5 99q-51 6 -51 49q0 37 41 52q315 111 315 348v4q0 117 -85 192.5t-228.5 75.5t-239.5 -106.5t-96 -284.5v-983q0 -20 -14.5 -34.5t-37 -14.5t-36 14t-13.5 35z" />
<glyph unicode="&#xe0;" horiz-adv-x="1175" d="M129 502q0 207 139.5 354.5t335.5 147.5q113 0 212 -53.5t165 -143.5v147q0 20 14.5 35t35 15t34.5 -14.5t14 -35.5v-905q0 -20 -14 -34.5t-34.5 -14.5t-35 14.5t-14.5 34.5v150q-66 -92 -165 -145.5t-212 -53.5q-197 0 -336 147.5t-139 354.5zM227 502q0 -168 112 -286 t266.5 -118t265 118t110.5 286t-110.5 286.5t-265 118.5t-266.5 -118.5t-112 -286.5zM466.5 1390q0.5 15 29 30.5t59.5 15.5t55 -37l127 -191q8 -12 8 -22q0 -18 -31.5 -18.5t-60.5 26.5l-164 158q-23 23 -22.5 38z" />
<glyph unicode="&#xe1;" horiz-adv-x="1175" d="M129 502q0 207 139.5 354.5t335.5 147.5q113 0 212 -53.5t165 -143.5v147q0 20 14.5 35t35 15t34.5 -14.5t14 -35.5v-905q0 -20 -14 -34.5t-34.5 -14.5t-35 14.5t-14.5 34.5v150q-66 -92 -165 -145.5t-212 -53.5q-197 0 -336 147.5t-139 354.5zM227 502q0 -168 112 -286 t266.5 -118t265 118t110.5 286t-110.5 286.5t-265 118.5t-266.5 -118.5t-112 -286.5zM465 1186q0 10 8 22l127 191q25 37 55.5 37t59 -15.5t28.5 -31t-22 -37.5l-164 -158q-29 -27 -60.5 -27t-31.5 19z" />
<glyph unicode="&#xe2;" horiz-adv-x="1175" d="M129 502q0 207 139.5 354.5t335.5 147.5q113 0 212 -53.5t165 -143.5v147q0 20 14.5 35t35 15t34.5 -14.5t14 -35.5v-905q0 -20 -14 -34.5t-34.5 -14.5t-35 14.5t-14.5 34.5v150q-66 -92 -165 -145.5t-212 -53.5q-197 0 -336 147.5t-139 354.5zM227 502q0 -168 112 -286 t266.5 -118t265 118t110.5 286t-110.5 286.5t-265 118.5t-266.5 -118.5t-112 -286.5zM381 1188q0 12 10 24l148 181q31 37 57 37h16q27 0 58 -37l147 -181q10 -12 10 -24q0 -20 -33.5 -20.5t-62.5 26.5l-129 119l-129 -119q-29 -27 -60.5 -27t-31.5 21z" />
<glyph unicode="&#xe3;" horiz-adv-x="1175" d="M129 502q0 207 139.5 354.5t335.5 147.5q113 0 212 -53.5t165 -143.5v147q0 20 14.5 35t35 15t34.5 -14.5t14 -35.5v-905q0 -20 -14 -34.5t-34.5 -14.5t-35 14.5t-14.5 34.5v150q-66 -92 -165 -145.5t-212 -53.5q-197 0 -336 147.5t-139 354.5zM227 502q0 -168 112 -286 t266.5 -118t265 118t110.5 286t-110.5 286.5t-265 118.5t-266.5 -118.5t-112 -286.5zM307 1202q0 12 4 25q29 86 67 119.5t86 33.5t142 -42t128 -42t54.5 17.5t38.5 60.5q14 29 37 29q37 0 37 -35q0 -12 -4 -25q-29 -86 -66.5 -119.5t-86 -33.5t-142.5 42t-128 42 t-54.5 -17.5t-38.5 -60.5q-14 -29 -37 -29q-37 0 -37 35z" />
<glyph unicode="&#xe4;" horiz-adv-x="1175" d="M129 502q0 207 139.5 354.5t335.5 147.5q113 0 212 -53.5t165 -143.5v147q0 20 14.5 35t35 15t34.5 -14.5t14 -35.5v-905q0 -20 -14 -34.5t-34.5 -14.5t-35 14.5t-14.5 34.5v150q-66 -92 -165 -145.5t-212 -53.5q-197 0 -336 147.5t-139 354.5zM227 502q0 -168 112 -286 t266.5 -118t265 118t110.5 286t-110.5 286.5t-265 118.5t-266.5 -118.5t-112 -286.5zM350 1255.5q0 36.5 25.5 62t62.5 25.5t62.5 -25.5t25.5 -62t-25.5 -62.5t-62.5 -26t-62.5 26t-25.5 62.5zM688 1255.5q0 36.5 25.5 62t62.5 25.5t62.5 -25.5t25.5 -62t-25.5 -62.5 t-62.5 -26t-62.5 26t-25.5 62.5z" />
<glyph unicode="&#xe5;" horiz-adv-x="1175" d="M104 502q0 207 139.5 354.5t336.5 147.5q113 0 212 -53.5t164 -143.5v147q0 20 14.5 35t35 15t35 -14.5t14.5 -35.5v-905q0 -20 -14.5 -34.5t-35 -14.5t-35 14.5t-14.5 34.5v150q-66 -92 -165 -145.5t-211 -53.5q-197 0 -336.5 147.5t-139.5 354.5zM203 502 q0 -168 111.5 -286t266 -118t265 118t110.5 286t-110.5 286.5t-265 118.5t-266 -118.5t-111.5 -286.5zM397 1325v2q0 74 55.5 127t129 53t130 -53t56.5 -127v-2q0 -72 -56.5 -125t-130 -53t-129 54t-55.5 124zM485 1325q0 -37 29 -65.5t69 -28.5t68.5 28.5t28.5 65.5v2 q0 39 -28.5 69.5t-68.5 30.5t-69 -30.5t-29 -69.5v-2z" />
<glyph unicode="&#xe6;" horiz-adv-x="1953" d="M104 502q0 207 139.5 354.5t336.5 147.5q113 0 212 -53.5t164 -143.5v147q0 20 14.5 35t35 15t35 -14.5t14.5 -35.5v-166q68 100 174 160t229 60q193 0 331.5 -135t154.5 -332v-9q0 -20 -14.5 -34.5t-35.5 -14.5h-827q8 -164 120.5 -274.5t270.5 -110.5q100 0 186.5 49.5 t137.5 133.5q10 18 31.5 22t35.5 -6q41 -29 17 -68q-68 -106 -174.5 -167.5t-231.5 -61.5t-231.5 59.5t-173.5 159.5v-170q0 -20 -14.5 -34.5t-35 -14.5t-35 14.5t-14.5 34.5v150q-66 -92 -165 -145.5t-211 -53.5q-197 0 -336.5 147.5t-139.5 354.5zM203 502 q0 -168 111.5 -286t266 -118t265 118t110.5 286t-110.5 286.5t-265 118.5t-266 -118.5t-111.5 -286.5zM1073 584h764q-27 141 -133.5 233t-246.5 92t-247.5 -92t-136.5 -233z" />
<glyph unicode="&#xe7;" horiz-adv-x="1169" d="M119 503q0 210 150.5 355.5t348 145.5t336.5 -111q16 -10 18.5 -30.5t-11.5 -37.5q-31 -35 -68 -8q-113 90 -272.5 90t-281.5 -118.5t-122 -286.5t122 -286t280.5 -118t273.5 88q37 27 68.5 -10t-11.5 -70q-137 -106 -315 -106q-215 0 -365.5 146.5t-150.5 356.5z M457 -243.5q0 14.5 10 32.5l158 231h88l-133 -270q-20 -41 -49 -41t-51.5 16.5t-22.5 31z" />
<glyph unicode="&#xe8;" horiz-adv-x="1247" d="M119 501q0 208 142 355.5t340 147.5t335.5 -134t153.5 -333v-9q0 -20 -14.5 -32.5t-35.5 -12.5h-823q8 -164 121 -274.5t268 -110.5q100 0 186.5 49.5t137.5 133.5q25 41 65.5 14t16.5 -68q-66 -104 -173.5 -165.5t-232.5 -61.5q-203 0 -345 146.5t-142 354.5zM223 580 h760q-25 141 -131.5 233t-246.5 92t-246.5 -91t-135.5 -234zM464.5 1390q0.5 15 29 30.5t59.5 15.5t55 -37l127 -191q8 -12 8 -22q0 -18 -31.5 -18.5t-60.5 26.5l-164 158q-23 23 -22.5 38z" />
<glyph unicode="&#xe9;" horiz-adv-x="1247" d="M119 501q0 -208 142 -354.5t345 -146.5q125 0 232.5 61.5t173.5 165.5q25 41 -16.5 68t-65.5 -14q-51 -84 -137 -133.5t-187 -49.5q-156 0 -268.5 110.5t-120.5 274.5h823q20 0 35 12.5t15 32.5v9q-16 199 -153.5 333t-335.5 134t-340 -147.5t-142 -355.5zM223 580 q29 143 135.5 234t246.5 91t246.5 -92t131.5 -233h-760zM465 1186q0 10 8 22l127 191q25 37 55.5 37t59 -15.5t28.5 -31t-22 -37.5l-164 -158q-29 -27 -60.5 -27t-31.5 19z" />
<glyph unicode="&#xea;" horiz-adv-x="1247" d="M119 501q0 208 142 355.5t340 147.5t335.5 -134t153.5 -333v-9q0 -20 -14.5 -32.5t-35.5 -12.5h-823q8 -164 121 -274.5t268 -110.5q100 0 186.5 49.5t137.5 133.5q25 41 65.5 14t16.5 -68q-66 -104 -173.5 -165.5t-232.5 -61.5q-203 0 -345 146.5t-142 354.5zM223 580 h760q-25 141 -131.5 233t-246.5 92t-246.5 -91t-135.5 -234zM383 1188q0 12 10 24l147 181q31 37 58 37h16q27 0 58 -37l147 -181q10 -12 10 -24q0 -20 -33.5 -20.5t-62.5 26.5l-129 119l-129 -119q-29 -27 -60.5 -27t-31.5 21z" />
<glyph unicode="&#xeb;" horiz-adv-x="1196" d="M125 501q0 -208 142.5 -354.5t344.5 -146.5q125 0 232.5 61.5t173.5 165.5q25 41 -16.5 68t-65.5 -14q-51 -84 -137 -133.5t-187 -49.5q-156 0 -268.5 110.5t-120.5 274.5h824q20 0 34.5 12.5t14.5 32.5v9q-16 199 -153.5 333t-335 134t-340 -147.5t-142.5 -355.5z M229 580q29 143 135.5 234t247 91t247 -92t130.5 -233h-760zM354 1255.5q0 36.5 26 62t62.5 25.5t62 -25.5t25.5 -62t-25.5 -62.5t-62 -26t-62.5 26t-26 62.5zM692 1255.5q0 36.5 25.5 62t62.5 25.5t62.5 -25.5t25.5 -62t-25.5 -62.5t-62.5 -26t-62.5 26t-25.5 62.5z" />
<glyph unicode="&#xec;" horiz-adv-x="575" d="M102 1390q0 15 29 30.5t59.5 15.5t55.5 -37l127 -191q8 -12 8 -22q0 -18 -32 -18.5t-60 26.5l-164 158q-23 23 -23 38zM193 49q0 -20 14 -34.5t34.5 -14.5t36 14.5t15.5 34.5v905q0 20 -14.5 35t-36 15t-35.5 -14.5t-14 -35.5v-905z" />
<glyph unicode="&#xed;" horiz-adv-x="575" d="M102 1186q0 10 9 22l127 191q25 37 55.5 37t59 -15.5t28.5 -31t-23 -37.5l-163 -158q-29 -27 -61 -27t-32 19zM193 49q0 -20 14 -34.5t34.5 -14.5t36 14.5t15.5 34.5v905q0 20 -14.5 35t-36 15t-35.5 -14.5t-14 -35.5v-905z" />
<glyph unicode="&#xee;" horiz-adv-x="575" d="M18 1188q0 12 11 24l147 181q31 37 57 37h17q27 0 57 -37l148 -181q10 -12 10 -24q0 -20 -34 -20.5t-62 26.5l-129 119l-129 -119q-29 -27 -61 -27t-32 21zM193 49q0 -20 14 -34.5t34.5 -14.5t36 14.5t15.5 34.5v905q0 20 -14.5 35t-36 15t-35.5 -14.5t-14 -35.5v-905z " />
<glyph unicode="&#xef;" horiz-adv-x="575" d="M-12 1255.5q0 36.5 25.5 62t62.5 25.5t62.5 -25.5t25.5 -62t-25.5 -62.5t-62.5 -26t-62.5 26t-25.5 62.5zM193 49q0 -20 14 -34.5t34.5 -14.5t36 14.5t15.5 34.5v905q0 20 -14.5 35t-36 15t-35.5 -14.5t-14 -35.5v-905zM326 1255.5q0 36.5 25.5 62t62.5 25.5t62.5 -25.5 t25.5 -62t-25.5 -62.5t-62.5 -26t-62.5 26t-25.5 62.5z" />
<glyph unicode="&#xf0;" horiz-adv-x="1286" d="M119 501q0 216 145.5 355t343 139t365.5 -129l-301 426l-250 -127q-12 -6 -27.5 -6t-29 14.5t-13.5 37t29 36.5l240 117l-37 53q-12 16 -12.5 37t15 35t40 14t43.5 -26l43 -66l176 90q12 6 27.5 6t28.5 -14t13 -36.5t-28 -37.5l-166 -82l221 -329q90 -133 134 -247 t44 -253q0 -219 -148.5 -376t-374.5 -157t-373.5 155t-147.5 371zM227 498q0 -174 120 -301t298 -127t294 126t116 298t-125 291.5t-305.5 119.5t-289 -116.5t-108.5 -290.5z" />
<glyph unicode="&#xf1;" d="M193 37q2 -2 2 -5t2 -5q10 -20 32 -27h13q37 0 47 41v553q4 129 94 219t218 90t218 -91t90 -218v-545q0 -20 14.5 -34.5t35 -14.5t35 14.5t14.5 34.5v545q0 168 -120 287.5t-299 119.5t-300 -145v96q0 20 -13.5 34.5t-34 14.5t-34.5 -14t-14 -35v-915zM305 1182 q0 12 4 24q29 86 67 120t87 34t143 -42t127 -42t53.5 17.5t38.5 60.5q14 29 37 28q37 0 37 -34q0 -12 -4 -25q-29 -86 -66.5 -120t-87 -34t-143.5 42t-127 42t-53.5 -17t-38.5 -60q-14 -29 -37 -29q-37 0 -37 35z" />
<glyph unicode="&#xf2;" horiz-adv-x="1310" d="M119 502q0 -205 139 -353.5t336 -148.5t336 148.5t139 353.5t-139 353.5t-336 148.5t-336 -148.5t-139 -353.5zM217 503q0 167 111.5 285.5t265.5 118.5t265.5 -118.5t111.5 -285.5t-111.5 -286t-265.5 -119t-265.5 119t-111.5 286zM454.5 1390q0.5 15 29 30.5t59 15.5 t55.5 -37l127 -191q8 -12 8 -22q0 -18 -31.5 -18.5t-60.5 26.5l-164 158q-23 23 -22.5 38z" />
<glyph unicode="&#xf3;" horiz-adv-x="1310" d="M119 502q0 -205 139 -353.5t336 -148.5t336 148.5t139 353.5t-139 353.5t-336 148.5t-336 -148.5t-139 -353.5zM217 503q0 167 111.5 285.5t265.5 118.5t265.5 -118.5t111.5 -285.5t-111.5 -286t-265.5 -119t-265.5 119t-111.5 286zM459 1186q0 10 8 22l127 191 q25 37 55.5 37t59 -15.5t28.5 -31t-22 -37.5l-164 -158q-29 -27 -60.5 -27t-31.5 19z" />
<glyph unicode="&#xf4;" horiz-adv-x="1310" d="M119 502q0 -205 139 -353.5t336 -148.5t336 148.5t139 353.5t-139 353.5t-336 148.5t-336 -148.5t-139 -353.5zM217 503q0 167 111.5 285.5t265.5 118.5t265.5 -118.5t111.5 -285.5t-111.5 -286t-265.5 -119t-265.5 119t-111.5 286zM371 1188q0 12 10 24l147 181 q31 37 58 37h16q27 0 57 -37l148 -181q10 -12 10 -24q0 -20 -33.5 -20.5t-62.5 26.5l-129 119l-129 -119q-29 -27 -60.5 -27t-31.5 21z" />
<glyph unicode="&#xf5;" horiz-adv-x="1310" d="M119 502q0 -205 139 -353.5t336 -148.5t336 148.5t139 353.5t-139 353.5t-336 148.5t-336 -148.5t-139 -353.5zM217 503q0 167 111.5 285.5t265.5 118.5t265.5 -118.5t111.5 -285.5t-111.5 -286t-265.5 -119t-265.5 119t-111.5 286zM297 1202q0 12 4 25q29 86 67 119.5 t86 33.5t143 -42t128 -42t53.5 17.5t38.5 60.5q14 29 37 29q37 0 37 -35q0 -12 -4 -25q-29 -86 -67 -119.5t-87 -33.5t-143 42t-127 42t-53.5 -17.5t-38.5 -60.5q-14 -29 -37 -29q-37 0 -37 35z" />
<glyph unicode="&#xf6;" horiz-adv-x="1310" d="M119 502q0 -205 139 -353.5t336 -148.5t336 148.5t139 353.5t-139 353.5t-336 148.5t-336 -148.5t-139 -353.5zM217 503q0 167 111.5 285.5t265.5 118.5t265.5 -118.5t111.5 -285.5t-111.5 -286t-265.5 -119t-265.5 119t-111.5 286zM336 1255.5q0 36.5 25.5 62t62.5 25.5 t62.5 -25.5t25.5 -62t-25.5 -62.5t-62.5 -26t-62.5 26t-25.5 62.5zM674 1255.5q0 36.5 25.5 62t62.5 25.5t62.5 -25.5t25.5 -62t-25.5 -62.5t-62.5 -26t-62.5 26t-25.5 62.5z" />
<glyph unicode="&#xf7;" horiz-adv-x="1269" d="M131 720.5q0 -20.5 14.5 -34.5t34.5 -14h910q20 0 34.5 14t14.5 34.5t-14.5 35t-34.5 14.5h-910q-20 0 -34.5 -14.5t-14.5 -35zM553 309v35q0 33 24.5 57.5t57.5 24.5t57.5 -24.5t24.5 -57.5v-35q0 -35 -24.5 -58.5t-57.5 -23.5t-57.5 23.5t-24.5 58.5zM553 1098v35 q0 35 24.5 58t57.5 23t57.5 -23.5t24.5 -57.5v-35q0 -33 -24.5 -57.5t-57.5 -24.5t-57.5 24.5t-24.5 57.5z" />
<glyph unicode="&#xf8;" horiz-adv-x="1310" d="M119 518v4q0 223 154.5 385t367.5 162t358 -125l99 107q16 16 34.5 16t31 -11.5t12.5 -28.5t-13 -30l-104 -110q133 -154 133 -361v-4q0 -223 -154.5 -385t-367.5 -162t-359 123l-98 -100q-16 -16 -34.5 -16t-31 11t-12.5 28.5t12 29.5l103 107q-131 158 -131 360z M227 522q0 -166 97 -289l610 633q-121 109 -293 109t-293 -131t-121 -318v-4zM377 176q119 -106 292 -106t293.5 131t120.5 317v4q0 164 -98 289z" />
<glyph unicode="&#xf9;" d="M170 410q0 -170 119 -290t289 -120t289.5 120t119.5 290v546q0 20 -14.5 35t-34.5 15t-35.5 -14.5t-15.5 -35.5v-546q0 -129 -91 -219.5t-219.5 -90.5t-218.5 90.5t-90 219.5v546q0 20 -14 35t-34.5 15t-35 -14.5t-14.5 -35.5v-546zM438 1390q0 15 29 30.5t59.5 15.5 t55.5 -37l127 -191q8 -12 8 -22q0 -18 -32 -18.5t-60 26.5l-164 158q-23 23 -23 38z" />
<glyph unicode="&#xfa;" d="M170 410v546q0 20 14.5 35t35 15t34.5 -14.5t14 -35.5v-546q0 -129 90.5 -219.5t218 -90.5t219 90.5t91.5 219.5v546q0 20 15.5 35t35.5 15t34.5 -14.5t14.5 -35.5v-546q0 -170 -119.5 -290t-289.5 -120t-289 120t-119 290zM439 1186q0 10 8 22l127 191q25 37 55.5 37 t59 -15.5t28.5 -31t-22 -37.5l-164 -158q-29 -27 -60.5 -27t-31.5 19z" />
<glyph unicode="&#xfb;" d="M170 410q0 -170 119 -290t289 -120t289.5 120t119.5 290v546q0 20 -14.5 35t-34.5 15t-35.5 -14.5t-15.5 -35.5v-546q0 -129 -91 -219.5t-219.5 -90.5t-218.5 90.5t-90 219.5v546q0 20 -14 35t-34.5 15t-35 -14.5t-14.5 -35.5v-546zM356 1188q0 12 11 24l147 181 q31 37 57 37h17q27 0 57 -37l148 -181q10 -12 10 -24q0 -20 -34 -20.5t-62 26.5l-129 119l-129 -119q-29 -27 -61 -27t-32 21z" />
<glyph unicode="&#xfc;" d="M170 410q0 -170 119 -290t289 -120t289.5 120t119.5 290v546q0 20 -14.5 35t-34.5 15t-35.5 -14.5t-15.5 -35.5v-546q0 -129 -91 -219.5t-219.5 -90.5t-218.5 90.5t-90 219.5v546q0 20 -14 35t-34.5 15t-35 -14.5t-14.5 -35.5v-546zM324 1255.5q0 36.5 25.5 62t62.5 25.5 t62.5 -25.5t25.5 -62t-25.5 -62.5t-62.5 -26t-62.5 26t-25.5 62.5zM662 1255.5q0 36.5 25.5 62t62 25.5t62.5 -25.5t26 -62t-26 -62.5t-62.5 -26t-62 26t-25.5 62.5z" />
<glyph unicode="&#xfd;" horiz-adv-x="1204" d="M106 412v544q0 20 14.5 34t35 14t35 -13.5t14.5 -34.5v-544q0 -129 90 -219.5t218 -90.5t218 90.5t92 219.5v544q0 15 13 31q0 8 20 14h4l6 3h13q43 -10 43 -48v-876q0 -197 -139.5 -334t-338.5 -137q-102 0 -206 47q-41 27 -21.5 64.5t64.5 25.5q78 -39 163 -39 q156 0 266.5 108.5t112.5 264.5v65q-127 -143 -303 -142t-295 121t-119 288zM375 1186q0 10 8 22l127 191q25 37 55.5 37t59 -15.5t28.5 -31t-22 -37.5l-164 -158q-29 -27 -60.5 -27t-31.5 19z" />
<glyph unicode="&#xfe;" horiz-adv-x="1351" d="M190 -285v1737q0 23 13.5 37t36 14t37 -14t14.5 -37v-641q170 258 430 258q201 0 354.5 -149.5t153.5 -393.5v-4q0 -244 -153.5 -395.5t-354.5 -151.5q-266 0 -430 250v-510q0 -23 -13.5 -37t-36 -14t-37 14t-14.5 37zM285 520q0 -194 128 -321t301 -127t289.5 120.5 t116.5 325.5v4q0 201 -119.5 326t-289.5 125t-298 -128t-128 -321v-4z" />
<glyph unicode="&#xff;" horiz-adv-x="1204" d="M106 412q0 -168 119 -288t295 -121t303 142v-65q-2 -156 -112.5 -264.5t-266.5 -108.5q-86 0 -163 39q-45 12 -64.5 -25.5t21.5 -64.5q104 -47 206 -47q199 0 338.5 137t139.5 334v876q0 37 -43 48h-13l-6 -3h-4q-20 -6 -20 -10t-6.5 -10.5t-6.5 -24.5v-544 q-2 -129 -92 -219.5t-218 -90.5t-218 90.5t-90 219.5v544q0 20 -14.5 34t-35 14t-35 -13.5t-14.5 -34.5v-544zM256 1255.5q0 36.5 25.5 62t62.5 25.5t62.5 -25.5t25.5 -62t-25.5 -62.5t-62.5 -26t-62.5 26t-25.5 62.5zM594 1255.5q0 36.5 25.5 62t62.5 25.5t62.5 -25.5 t25.5 -62t-25.5 -62.5t-62.5 -26t-62.5 26t-25.5 62.5z" />
<glyph unicode="&#x152;" horiz-adv-x="2955" d="M150 727q2 303 202.5 515t489.5 212q195 0 356.5 -105.5t249.5 -281.5v317q0 20 14.5 35t34.5 15h737q20 0 35 -14.5t15 -36t-14.5 -36t-35.5 -14.5h-686v-567h600q20 0 35 -15.5t15 -36t-14.5 -34.5t-35.5 -14h-600v-566h686q20 0 35 -14t15 -35.5t-14.5 -36 t-35.5 -14.5h-741q-18 2 -31.5 15.5t-13.5 33.5v338q-88 -176 -250 -281.5t-356 -105.5q-289 0 -489.5 212t-202.5 515zM250 728q0 -263 173 -445.5t414.5 -182.5t413.5 183.5t172 445.5t-171 442.5t-413.5 180.5t-415.5 -180.5t-173 -443.5z" />
<glyph unicode="&#x153;" horiz-adv-x="2160" d="M119 501q0 206 138 353t335 147q143 0 260 -81.5t174 -214.5q57 135 179 219t270 84q193 0 331 -135.5t154 -331.5v-9q0 -20 -14.5 -34.5t-34.5 -14.5h-828q8 -164 121 -274.5t271 -110.5q100 0 186 49.5t137 133.5q10 18 31.5 22t36.5 -6q41 -29 16 -68 q-67 -106 -173.5 -167.5t-244 -61.5t-259.5 82t-179 217q-55 -135 -172 -217t-262 -82q-197 0 -335 147.5t-138 353.5zM217 502q0 -168 110.5 -286t265.5 -118t265.5 118t110.5 286t-110.5 285.5t-265.5 117.5t-265.5 -117.5t-110.5 -285.5zM1090 584h763 q-26 141 -132.5 233t-247 92t-248 -92t-135.5 -233z" />
<glyph unicode="&#x178;" horiz-adv-x="1466" d="M125 1346l481 -658v-639q0 -20 14.5 -34.5t35 -14.5t35 14.5t14.5 34.5v643l479 654q12 16 9 37.5t-19 33.5t-38 9t-32 -19l-451 -616l-448 616q-10 16 -31.5 19.5t-38.5 -11.5q-37 -27 -10 -69zM399 1714q0 37 26 62.5t62.5 25.5t62 -25.5t25.5 -62.5t-25.5 -62.5 t-62 -25.5t-62.5 25.5t-26 62.5zM737 1714q0 37 25.5 62.5t62.5 25.5t62.5 -25.5t25.5 -62.5t-25.5 -62.5t-62.5 -25.5t-62.5 25.5t-25.5 62.5z" />
<glyph unicode="&#x2c6;" horiz-adv-x="1024" d="M289 1233q0 12 10 24l147 181q31 37 58 37h16q27 0 58 -37l147 -181q10 -12 10 -24q0 -20 -33.5 -20.5t-62.5 26.5l-129 119l-129 -119q-29 -27 -60.5 -27t-31.5 21z" />
<glyph unicode="&#x2dc;" horiz-adv-x="1024" d="M215 1231q0 12 4 24q52 154 153 154q48 0 143 -42t128 -42t53.5 17.5t38.5 60.5q14 29 37 29q37 0 37 -35q0 -12 -4 -25q-29 -86 -67 -119.5t-86 -33.5t-143 42t-128 42t-53.5 -17.5t-38.5 -60.5q-14 -29 -37 -29q-37 0 -37 35z" />
<glyph unicode="&#x2000;" horiz-adv-x="945" />
<glyph unicode="&#x2001;" horiz-adv-x="1891" />
<glyph unicode="&#x2002;" horiz-adv-x="945" />
<glyph unicode="&#x2003;" horiz-adv-x="1891" />
<glyph unicode="&#x2004;" horiz-adv-x="630" />
<glyph unicode="&#x2005;" horiz-adv-x="472" />
<glyph unicode="&#x2006;" horiz-adv-x="315" />
<glyph unicode="&#x2007;" horiz-adv-x="315" />
<glyph unicode="&#x2008;" horiz-adv-x="236" />
<glyph unicode="&#x2009;" horiz-adv-x="378" />
<glyph unicode="&#x200a;" horiz-adv-x="105" />
<glyph unicode="&#x2010;" horiz-adv-x="835" d="M135 711q0 39 39 39h436q39 0 39 -37q0 -18 -11 -29.5t-28 -11.5h-436q-39 0 -39 39z" />
<glyph unicode="&#x2011;" horiz-adv-x="835" d="M135 711q0 39 39 39h436q39 0 39 -37q0 -18 -11 -29.5t-28 -11.5h-436q-39 0 -39 39z" />
<glyph unicode="&#x2012;" horiz-adv-x="835" d="M135 711q0 39 39 39h436q39 0 39 -37q0 -18 -11 -29.5t-28 -11.5h-436q-39 0 -39 39z" />
<glyph unicode="&#x2013;" horiz-adv-x="1081" d="M135 608.5q0 22.5 16.5 38t36.5 15.5h705q20 0 36.5 -15.5t16.5 -38t-16.5 -38t-36.5 -15.5h-705q-20 0 -36.5 15.5t-16.5 38z" />
<glyph unicode="&#x2014;" horiz-adv-x="1839" d="M135 608.5q0 22.5 16.5 38t36.5 15.5h1463q20 0 36.5 -15.5t16.5 -38t-16.5 -38t-36.5 -15.5h-1463q-20 0 -36.5 15.5t-16.5 38z" />
<glyph unicode="&#x2018;" horiz-adv-x="471" d="M158 1110v51q0 158 60.5 218.5t96 60.5t35.5 -31q0 -16 -16 -27q-104 -57 -96 -157q55 -14 55 -72v-43q0 -29 -19.5 -48.5t-48 -19.5t-48 19.5t-19.5 48.5z" />
<glyph unicode="&#x2019;" horiz-adv-x="471" d="M121 1075q0 16 16 27q104 57 96 158q-55 14 -55 71v43q0 27 19.5 47.5t48 20.5t48 -20.5t19.5 -47.5v-51q0 -158 -60 -218.5t-96 -60.5t-36 31z" />
<glyph unicode="&#x201a;" horiz-adv-x="471" />
<glyph unicode="&#x201c;" horiz-adv-x="839" d="M158 1110v51q0 158 60.5 218.5t96 60.5t35.5 -31q0 -16 -16 -27q-104 -57 -96 -157q55 -14 55 -72v-43q0 -29 -19.5 -48.5t-48 -19.5t-48 19.5t-19.5 48.5zM526 1110v51q0 158 60.5 218.5t96.5 60.5t36 -31q0 -16 -17 -27q-104 -57 -96 -157q55 -14 56 -72v-43 q0 -29 -19.5 -48.5t-48.5 -19.5t-48.5 19.5t-19.5 48.5z" />
<glyph unicode="&#x201d;" horiz-adv-x="839" d="M121 1075q0 16 16 27q104 57 96 158q-55 14 -55 71v43q0 27 19.5 47.5t48 20.5t48 -20.5t19.5 -47.5v-51q0 -158 -60 -218.5t-96 -60.5t-36 31zM489 1075q0 16 17 27q104 57 96 158q-55 14 -55 71v43q0 27 19.5 47.5t48 20.5t48 -20.5t19.5 -47.5v-51 q0 -158 -60.5 -218.5t-96.5 -60.5t-36 31z" />
<glyph unicode="&#x201e;" horiz-adv-x="839" d="M111 -184q0 16 16 26q104 57 96 158q-55 14 -55 72v43q0 29 19.5 48t48 19t48 -19.5t19.5 -47.5v-52q0 -158 -60.5 -218t-96 -60t-35.5 31zM479 -184q0 16 17 26q104 57 96 158q-55 14 -55 72v43q0 29 20.5 48t47 19t47 -19.5t20.5 -47.5v-52q0 -158 -60.5 -218 t-96.5 -60t-36 31z" />
<glyph unicode="&#x2022;" horiz-adv-x="962" d="M227 719v4q0 102 77 177t177.5 75t177 -75t76.5 -177v-4q0 -104 -74.5 -178t-179 -74t-179.5 73.5t-75 178.5z" />
<glyph unicode="&#x2026;" horiz-adv-x="1392" d="M168 102q0 43 29.5 73t72.5 30t73 -30t30 -73t-30 -72.5t-73 -29.5t-72.5 29.5t-29.5 72.5zM633 102q0 43 29.5 73t72.5 30t73 -30t30 -73t-30 -72.5t-73 -29.5t-72.5 29.5t-29.5 72.5zM1098 102q0 43 29.5 73t72.5 30t73 -30t30 -73t-30 -72.5t-73 -29.5t-72.5 29.5 t-29.5 72.5z" />
<glyph unicode="&#x202f;" horiz-adv-x="378" />
<glyph unicode="&#x2039;" horiz-adv-x="636" d="M113 522.5q0 18.5 20 44.5l281 367q16 23 36.5 22.5t34 -12.5t13.5 -30.5t-13 -34.5l-258 -355l258 -358q12 -14 12.5 -33.5t-13 -32t-34 -12.5t-36.5 23l-281 366q-20 27 -20 45.5z" />
<glyph unicode="&#x203a;" horiz-adv-x="636" d="M139 131.5q0 18.5 13 34.5l258 354l-258 359q-14 20 -13 34q4 43 45 43q23 0 39 -22l281 -367q20 -27 20 -45t-20 -45l-281 -366q-16 -23 -36.5 -23t-34 12.5t-13.5 31z" />
<glyph unicode="&#x205f;" horiz-adv-x="472" />
<glyph unicode="&#x2122;" horiz-adv-x="1413" d="M45.5 1412.5q-0.5 21.5 20.5 21.5h413q20 0 20.5 -21.5t-20.5 -21.5h-186v-551q0 -20 -20.5 -20t-20.5 20v551h-186q-20 0 -20.5 21.5zM610 840v569q0 10 11 16v2q20 12 30 -6l219 -303l217 303q12 25 37 0q4 -8 4 -12v-569q0 -20 -21.5 -20t-21.5 20v506l-196 -273 q-4 -10 -19 -10h-2q-10 0 -18 10l-197 273v-506q0 -20 -21.5 -20.5t-21.5 20.5z" />
<glyph unicode="&#xe000;" horiz-adv-x="993" d="M0 0v993h993v-993h-993z" />
</font>
</defs>
</svg>
