<?xml version="1.0" standalone="no"?>
<!DOCTYPE svg PUBLIC "-//W3C//DTD SVG 1.1//EN" "http://www.w3.org/Graphics/SVG/1.1/DTD/svg11.dtd" >
<svg xmlns="http://www.w3.org/2000/svg">
<metadata></metadata>
<defs>
<font id="UbuntuRegular" horiz-adv-x="1155" >
<font-face units-per-em="2048" ascent="1638" descent="-410" />
<missing-glyph horiz-adv-x="473" />
<glyph unicode="&#xfb01;" horiz-adv-x="1316" d="M164 0v1161q0 428 416 428q125 0 196 -26l-26 -164q-75 26 -156 26q-133 0 -186.5 -72.5t-53.5 -195.5v-92h410v-160h-410v-905h-190zM934 1382q0 57 36 91t87 34t87 -33.5t36 -91.5q0 -57 -36 -91t-87 -34t-87 34t-36 91zM963 0v1065h190v-1065h-190z" />
<glyph unicode="&#xfb02;" horiz-adv-x="1357" d="M164 0v1161q0 428 416 428q125 0 196 -26l-26 -164q-75 26 -156 26q-133 0 -186.5 -72.5t-53.5 -195.5v-92h410v-160h-410v-905h-190zM958 279v1277l191 33v-1280q0 -92 35 -127q30 -30 125 -43l-27 -159q-176 4 -250 75.5t-74 223.5z" />
<glyph unicode="&#xfb03;" horiz-adv-x="2115" d="M164 0v1161q0 428 416 428q149 0 229 -35l-35 -163q-71 34 -192 34q-228 0 -228 -268v-92h410v-160h-410v-905h-190zM963 0v1161q0 428 416 428q125 0 196 -26l-26 -164q-75 26 -156 26q-133 0 -186.5 -72.5t-53.5 -195.5v-92h410v-160h-410v-905h-190zM1733 1382 q0 57 36 91t87 34t87 -33.5t36 -91.5q0 -57 -36 -91t-87 -34t-87 34t-36 91zM1762 0v1065h190v-1065h-190z" />
<glyph unicode="&#xfb04;" horiz-adv-x="2156" d="M164 0v1161q0 428 416 428q149 0 229 -35l-35 -163q-71 34 -192 34q-228 0 -228 -268v-92h410v-160h-410v-905h-190zM963 0v1161q0 428 416 428q125 0 196 -26l-26 -164q-75 26 -156 26q-133 0 -186.5 -72.5t-53.5 -195.5v-92h410v-160h-410v-905h-190zM1757 279v1277 l191 33v-1280q0 -92 35 -127q30 -30 125 -43l-27 -159q-176 4 -250 75.5t-74 223.5z" />
<glyph unicode="&#xd;" horiz-adv-x="473" />
<glyph horiz-adv-x="0" />
<glyph horiz-adv-x="0" />
<glyph unicode=" "  horiz-adv-x="473" />
<glyph unicode="&#x09;" horiz-adv-x="473" />
<glyph unicode="&#xa0;" horiz-adv-x="473" />
<glyph unicode="!" horiz-adv-x="565" d="M145 111q0 55 37 96t101 41q63 0 100 -41t37 -96t-37 -96.5t-100 -41.5t-100.5 41t-37.5 97zM180 1034v385h205v-385q0 -258 -43 -592h-119q-43 332 -43 592z" />
<glyph unicode="&#x22;" horiz-adv-x="856" d="M147 1456v100h199v-102q0 -181 -43 -428h-113q-43 260 -43 430zM509 1456v100h199v-102q0 -181 -43 -428h-113q-43 260 -43 430z" />
<glyph unicode="#" horiz-adv-x="1366" d="M100 375v151h209l70 367h-279v151h310l71 375h172l-71 -375h331l72 375h172l-72 -375h181v-151h-211l-70 -367h281v-151h-310l-71 -375h-172l71 375h-331l-72 -375h-172l72 375h-181zM481 526h332l72 367h-332z" />
<glyph unicode="$" d="M125 119l51 153q162 -77 340.5 -77t241.5 50t63 117.5t-27.5 108.5t-73.5 71q-72 48 -182 87t-170.5 66.5t-107.5 67.5q-106 90 -106 234.5t87 238t253 118.5v235h170v-229q148 -7 290 -57l-39 -160q-155 57 -293 57q-270 0 -270 -180q0 -86 76 -138q53 -37 166 -78.5 t184.5 -74.5t125.5 -79q120 -102 120 -255q0 -311 -360 -354v-264h-170v258q-229 6 -369 84z" />
<glyph unicode="%" horiz-adv-x="1757" d="M102 1073q0 177 94 280q89 97 232 97t232 -97q94 -101 94 -280q0 -178 -94 -279q-89 -98 -232 -98q-144 0 -232 98q-94 103 -94 279zM262 1073q0 -111 43 -173t123 -62t123 62t43 173t-43 173.5t-123 62.5t-123 -62.5t-43 -173.5zM385 0l801 1419h186l-801 -1419h-186z M1004 346q0 179 93 280q89 97 232 97q144 0 233 -97q93 -101 93 -280q0 -177 -93 -280q-88 -97 -233 -97q-144 0 -232 97q-93 103 -93 280zM1163 346q0 -111 43 -173t123 -62t123 62t43 173t-43 173.5t-123 62.5t-123 -62.5t-43 -173.5z" />
<glyph unicode="&#x26;" horiz-adv-x="1363" d="M94 377q0 265 303 409q-152 152 -151 314q0 161 103 258q100 94 261 94q158 0 255 -90q89 -83 89 -219q0 -184 -178 -320q-51 -39 -108 -69l331 -338q70 129 91 286l157 -20q-18 -190 -137 -381q168 -182 231 -301h-200q-34 56 -135 170q-188 -188 -449 -188 q-239 0 -363 134q-100 106 -100 261zM285 395.5q0 -51.5 14 -94.5t47 -79q76 -83 215 -83q198 0 336 142l-399 403q-94 -46 -134 -92.5t-59.5 -95.5t-19.5 -100.5zM424 1114q0 -133 139 -260q106 54 145.5 99.5t56.5 88t17 104t-46 109.5t-131 48t-133 -54.5t-48 -134.5z " />
<glyph unicode="'" horiz-adv-x="493" d="M147 1456v100h199v-102q0 -181 -43 -428h-113q-43 260 -43 430z" />
<glyph unicode="(" horiz-adv-x="663" d="M160 612q0 291 97 544t257 448l135 -93q-299 -386 -299 -899q0 -511 299 -899l-135 -92q-160 195 -257 448t-97 543z" />
<glyph unicode=")" horiz-adv-x="663" d="M14 -287q299 386 299 899q0 515 -299 899l136 93q160 -195 257 -448t97 -544t-97.5 -543.5t-256.5 -447.5z" />
<glyph unicode="*" horiz-adv-x="983" d="M76 1055l57 172q91 -30 165.5 -70.5t147.5 -81.5q-16 84 -31.5 163t-15.5 165v16h185v-16q0 -86 -15.5 -165t-31.5 -163q74 41 145 80q77 42 168 72l57 -172q-99 -37 -180.5 -46.5t-167.5 -15.5q68 -57 127 -111q71 -66 121 -141l-150 -104q-73 109 -165 309 q-99 -208 -166 -309l-150 104q53 80 116.5 137.5t131.5 114.5q-86 6 -168 15q-81 10 -180 47z" />
<glyph unicode="+" d="M109 532v162h387v422h163v-422h388v-162h-388v-423h-163v423h-387z" />
<glyph unicode="," horiz-adv-x="503" d="M78 -279q84 171 84 414q0 54 -4 98h207q2 -16 2 -31v-32q0 -249 -142 -496z" />
<glyph unicode="-" horiz-adv-x="612" d="M53 524v178h506v-178h-506z" />
<glyph unicode="." horiz-adv-x="503" d="M115 111q0 55 36.5 96t100.5 41q63 0 100 -41t37 -96t-37 -96.5t-100 -41.5t-100 41t-37 97z" />
<glyph unicode="/" horiz-adv-x="786" d="M-49 -379l694 1983h191l-691 -1983h-194z" />
<glyph unicode="0" d="M102 711q0 356 126 548.5t350 192.5q223 0 349 -192.5t126 -548.5t-126 -549t-349 -193t-349.5 193t-126.5 549zM303 711q0 -405 143 -528q54 -46 132 -46q274 0 274 574q0 404 -144 527q-53 46 -130 46q-275 0 -275 -573z" />
<glyph unicode="1" d="M190 1126q263 101 431 293h135v-1419h-191v1155q-78 -71 -226 -137q-46 -21 -89 -35z" />
<glyph unicode="2" d="M115 1282q93 104 257 152q64 18 138 18q223 0 334.5 -103.5t111.5 -287t-218 -413.5q-62 -64 -110.5 -112.5t-94.5 -95.5t-87 -98q-96 -122 -96 -180h654v-162h-861q-2 12 -2 24v23q0 239 229 475q64 66 120.5 121t102.5 103.5t82 96.5q79 105 79 208q0 113 -72 175 q-64 56 -170 56q-98 0 -197 -54q-39 -22 -65.5 -45.5t-40.5 -35.5z" />
<glyph unicode="3" d="M113 43l37 166q153 -70 324 -70t250 72t79 192q0 146 -119 217q-98 58 -268 58h-49v156h67q205 0 278 119q29 46 29 109.5t-20.5 104.5t-54.5 68q-60 49 -190 49t-263 -88l-74 145q173 111 363 111q323 0 410 -224q26 -69 26 -164.5t-63.5 -174t-153.5 -119.5 q188 -55 257 -234q23 -61 23 -145t-31.5 -162.5t-97.5 -136.5q-143 -123 -405 -123q-143 0 -301 53q-37 13 -53 21z" />
<glyph unicode="4" d="M82 362v130q85 196 259 456q188 281 378 471h182v-901h168v-156h-168v-362h-184v362h-635zM266 518h451v676q-274 -297 -451 -676z" />
<glyph unicode="5" d="M133 43l37 166q153 -70 307 -70q171 0 256 76q74 66 74 161t-26.5 155.5t-94.5 101.5q-139 84 -465 84q32 268 51 702h684v-162h-518q-20 -305 -30 -385q309 -12 453.5 -135t144.5 -334q0 -196 -128 -311q-139 -123 -397 -123q-138 0 -295 53q-36 13 -53 21z" />
<glyph unicode="6" d="M129 569q0 407 221 633q212 219 594 223l14 -159q-380 -6 -528 -243q-53 -85 -80 -210q121 57 250 57t213 -36.5t137 -97.5q101 -113 101 -304q0 -174 -108 -310q-123 -153 -346.5 -153t-345.5 159.5t-122 440.5zM328 569q0 -442 276 -442q123 0 192 102q58 85 58 211.5 t-66.5 200.5t-199.5 74q-132 0 -256 -53q-4 -46 -4 -93z" />
<glyph unicode="7" d="M123 1253v166h903v-157q-157 -180 -304 -520q-165 -383 -190 -742h-198q24 322 172 697q142 362 307 556h-690z" />
<glyph unicode="8" d="M113 358q0 109 71 216q57 86 162 151q-201 115 -201 338q0 160 118 273q122 116 315 116q210 0 330 -124q100 -102 100 -247q0 -110 -65 -209q-53 -80 -146 -141q241 -114 245 -362q0 -178 -118 -286q-123 -114 -349 -114q-241 0 -364 133q-98 107 -98 256zM305 356 q0 -144 143 -206q52 -23 126 -23t126 20.5t84 52.5q66 63 66 142.5t-24.5 128.5t-70.5 86q-83 67 -257 107q-193 -107 -193 -308zM336 1077q0 -158 158 -243q57 -31 135 -50q86 51 137 119.5t51 162.5t-62 161t-177 67q-120 0 -187 -72q-55 -60 -55 -145z" />
<glyph unicode="9" d="M104 991q0 173 108 307q123 154 337 154q231 0 355 -160q122 -157 122 -440q0 -422 -210 -638t-623 -218l-7 160q265 0 414 103q159 110 207 351q-117 -55 -249 -55t-216 36t-137 97q-101 115 -101 303zM301 995q0 -284 266 -284q142 0 258 53q2 23 2 44v44 q0 312 -141 406q-53 36 -128 36t-122 -28.5t-78 -72.5q-57 -83 -57 -198z" />
<glyph unicode=":" horiz-adv-x="503" d="M115 111q0 55 36.5 96t100.5 41q63 0 100 -41t37 -96t-37 -96.5t-100 -41.5t-100 41t-37 97zM115 928q0 55 36.5 96t100.5 41q63 0 100 -41t37 -96t-37 -96.5t-100 -41.5t-100 41t-37 97z" />
<glyph unicode=";" horiz-adv-x="503" d="M78 -279q84 171 84 414q0 54 -4 98h207q2 -16 2 -31v-32q0 -249 -142 -496zM115 928q0 55 36.5 96t100.5 41q63 0 100 -41t37 -96t-37 -96.5t-100 -41.5t-100 41t-37 97z" />
<glyph unicode="&#x3c;" d="M109 530v164l884 375l54 -158l-728 -299l728 -299l-54 -157z" />
<glyph unicode="=" d="M109 313v162h938v-162h-938zM109 750v161h938v-161h-938z" />
<glyph unicode="&#x3e;" d="M109 313l727 299l-727 299l53 158l885 -375v-164l-885 -374z" />
<glyph unicode="?" horiz-adv-x="827" d="M39 1370q155 82 342 82q209 0 311 -112q80 -88 80 -226q0 -152 -178 -315q-107 -98 -142.5 -171t-35.5 -141v-22q0 -12 2 -23h-160q-8 41 -8 96.5t23.5 108.5t60.5 99.5t78 86t78 80.5q83 94 83 182.5t-55.5 142.5t-176 54t-249.5 -69zM211 111q0 55 37 96t100 41 t100 -41t37 -96t-36.5 -96.5t-100.5 -41.5q-63 0 -100 41t-37 97z" />
<glyph unicode="@" horiz-adv-x="1945" d="M133 569q0 221 69.5 387t187.5 276q238 220 599 220q348 0 579 -212q244 -223 244 -581q0 -267 -116 -425q-109 -146 -283 -146q-116 0 -180 68q-108 -60 -221 -60t-194 31t-140 91q-125 127 -125 353q0 208 121 337q130 139 330.5 139t341.5 -50v-626q0 -119 81 -119 q102 0 159 133q50 115 50 265.5t-45 264t-129 199.5q-180 184 -473 184q-302 0 -489 -193q-191 -197 -191 -536q0 -349 202 -543q191 -184 530 -184q176 0 282 37l20 -151q-35 -12 -126 -26.5t-234 -14.5t-305 52t-283 159q-262 233 -262 671zM745 567.5q0 -141.5 70 -227.5 t189 -86q99 0 165 37q-10 45 -10 104v482q-36 12 -125 12q-145 0 -217 -90t-72 -231.5z" />
<glyph unicode="A" horiz-adv-x="1357" d="M16 0q349 959 572 1419h182q240 -499 571 -1419h-217l-129 362h-643l-129 -362h-207zM410 526h528q-165 445 -264 666q-120 -256 -264 -666z" />
<glyph unicode="B" horiz-adv-x="1316" d="M176 23v1376q144 35 324 35t287.5 -18.5t186.5 -62.5q169 -94 169 -292q0 -117 -55.5 -191.5t-147.5 -111.5q125 -37 198.5 -117t73.5 -225q0 -213 -156.5 -320.5t-496.5 -107.5q-253 0 -383 35zM373 162q92 -8 189 -8t176 11t138 39q132 63 132 210q0 195 -224 236 q-69 12 -155 12h-256v-500zM373 821h209q356 0 356 226q0 167 -226 209q-67 12 -143 12q-126 0 -196 -8v-439z" />
<glyph unicode="C" horiz-adv-x="1269" d="M119 711q0 344 201 549q188 192 477 192q148 0 281 -41q83 -25 130 -57l-57 -164q-36 24 -106 47q-125 41 -233 41t-198 -39t-154 -113q-130 -151 -130 -415q0 -262 118 -411q125 -157 357 -157q198 0 362 80l52 -164q-71 -51 -273 -79q-74 -11 -192 -11t-240.5 49.5 t-210.5 143.5q-184 197 -184 549z" />
<glyph unicode="D" horiz-adv-x="1460" d="M176 23v1376q147 35 349 35t347.5 -44t249.5 -134q219 -187 219 -545q0 -360 -219 -546q-207 -177 -569 -177q-237 0 -377 35zM375 168q54 -6 194 -6q283 0 422 144.5t139 404.5t-139 404.5t-422 144.5q-131 0 -194 -7v-1085z" />
<glyph unicode="E" horiz-adv-x="1169" d="M176 0v1419h866v-170h-667v-422h594v-165h-594v-492h719v-170h-918z" />
<glyph unicode="F" horiz-adv-x="1099" d="M176 0v1419h856v-170h-657v-428h583v-168h-583v-653h-199z" />
<glyph unicode="G" horiz-adv-x="1376" d="M119 711q0 344 201 549q188 192 481 192q235 0 386 -74q34 -16 46 -24l-64 -166q-59 39 -157.5 64.5t-204 25.5t-194.5 -39t-151 -113q-132 -154 -132 -415q0 -403 269 -527q89 -41 222 -41t221 27v528h199v-663q-113 -36 -247 -50t-208 -14q-302 0 -483 193 q-184 197 -184 547z" />
<glyph unicode="H" horiz-adv-x="1443" d="M176 0v1419h199v-592h694v592h199v-1419h-199v655h-694v-655h-199z" />
<glyph unicode="I" horiz-adv-x="550" d="M176 0v1419h199v-1419h-199z" />
<glyph unicode="J" horiz-adv-x="1024" d="M16 84l78 158q43 -31 111.5 -65t171.5 -34q147 0 214.5 75t67.5 257v944h199v-962q0 -226 -97 -345q-116 -143 -374 -143q-178 0 -315 77q-35 20 -56 38z" />
<glyph unicode="K" horiz-adv-x="1288" d="M176 0v1419h199v-626q220 207 390.5 387t221.5 239h240q-255 -284 -645 -663q169 -117 378 -344q211 -229 316 -412h-234q-184 289 -490 545q-91 76 -177 129v-674h-199z" />
<glyph unicode="L" horiz-adv-x="1062" d="M176 0v1419h199v-1247h655v-172h-854z" />
<glyph unicode="M" horiz-adv-x="1783" d="M137 0q38 882 105 1419h174q149 -244 368 -738q60 -134 109 -245q322 729 477 983h174q70 -686 105 -1419h-195q-24 683 -61 1092q-56 -98 -111 -215t-99 -210.5t-83 -181.5t-73 -163.5t-54 -124.5h-160q-20 49 -54 124.5t-73 163.5t-83 181.5t-83 176.5 q-81 172 -127 249q-36 -381 -61 -1092h-195z" />
<glyph unicode="N" horiz-adv-x="1490" d="M176 0v1419h158q169 -180 350 -422q299 -401 436 -628v1050h195v-1419h-166q-297 502 -653 956q-68 86 -125 152v-1108h-195z" />
<glyph unicode="O" horiz-adv-x="1593" d="M119 711q0 352 201 553q188 188 481 188q289 0 473 -188q201 -204 201 -553q0 -350 -201 -555q-184 -187 -473 -187q-293 0 -481 187q-201 202 -201 555zM328 711q0 -260 126 -414q125 -154 343 -154q215 0 341 154q126 155 126 414q0 260 -126.5 413.5t-340.5 153.5 q-217 0 -343 -154q-126 -152 -126 -413z" />
<glyph unicode="P" horiz-adv-x="1245" d="M176 0v1399q147 35 377 35q299 0 460 -114t161 -339q0 -354 -373 -431q-119 -24 -269 -24h-157v-526h-199zM375 696h149q219 0 323 58q118 67 118 229q0 277 -396 277q-127 0 -194 -7v-557z" />
<glyph unicode="Q" horiz-adv-x="1593" d="M119 715q0 178 54 317t147 232q188 188 481 188q289 0 473 -188q201 -204 201 -553q0 -308 -155 -501q-146 -182 -378 -224q5 -124 280 -184q76 -17 152 -25l-47 -156q-381 50 -512 199q-53 61 -72 151q-271 17 -442 206q-182 201 -182 538zM328 711q0 -260 126 -414 q125 -154 343 -154q215 0 341 154q126 155 126 414q0 260 -126.5 413.5t-340.5 153.5q-217 0 -343 -154q-126 -152 -126 -413z" />
<glyph unicode="R" horiz-adv-x="1288" d="M176 0v1399q147 35 377 35q299 0 455.5 -113t156.5 -336q0 -141 -75 -241.5t-220 -149.5q156 -194 292 -424q52 -88 89 -170h-217q-149 284 -370 557q-27 -2 -54 -2h-235v-555h-199zM375 719h141q227 0 322 49q118 60 118 219q0 219 -236 261q-71 12 -174.5 12t-170.5 -7 v-534z" />
<glyph unicode="S" horiz-adv-x="1089" d="M68 70l59 163q47 -27 143.5 -59.5t235.5 -32.5q311 0 311 213q0 166 -209 250q-61 25 -134 50.5t-142.5 59.5t-120.5 80q-111 100 -111 274.5t127 279t351 104.5q129 0 234.5 -27.5t154.5 -60.5l-64 -162q-43 27 -128 52.5t-169.5 25.5t-134 -12.5t-86.5 -37.5 q-80 -52 -80 -151q0 -103 86 -165q62 -44 184.5 -92t199.5 -85t133 -88q118 -106 118 -292.5t-136 -287t-384 -100.5q-209 0 -376 71q-40 17 -62 30z" />
<glyph unicode="T" horiz-adv-x="1157" d="M33 1247v172h1091v-172h-446v-1247h-199v1247h-446z" />
<glyph unicode="U" horiz-adv-x="1409" d="M166 528v891h199v-868q0 -213 94 -309.5t246 -96.5q243 0 315 223q24 76 24 183v868h199v-891q0 -390 -297 -516q-102 -43 -241 -43q-270 0 -411 161q-128 147 -128 398z" />
<glyph unicode="V" horiz-adv-x="1343" d="M20 1419h220q111 -324 217 -622.5t219 -560.5q113 260 219 560t215 623h213q-283 -816 -557 -1419h-186q-314 691 -560 1419z" />
<glyph unicode="W" horiz-adv-x="1902" d="M57 1419h209q145 -800 256 -1171q227 594 346 1003h172q80 -274 174.5 -531t176.5 -472q116 404 251 1171h203q-156 -862 -346 -1419h-199q-200 490 -348 963q-125 -397 -350 -963h-199q-195 559 -346 1419z" />
<glyph unicode="X" horiz-adv-x="1292" d="M47 0q92 180 214 366.5t259 383.5l-454 669h229l350 -528l346 528h228l-447 -661q336 -481 479 -758h-223q-131 258 -381 606q-258 -365 -381 -606h-219z" />
<glyph unicode="Y" horiz-adv-x="1224" d="M12 1419h234q155 -333 372 -674q219 350 373 674h221q-228 -420 -499 -846v-573h-199v569q-263 408 -502 850z" />
<glyph unicode="Z" horiz-adv-x="1173" d="M68 0v133q177 337 506 789q146 199 260 327h-730v170h973v-157q-252 -284 -529 -692q-143 -208 -249 -400h799v-170h-1030z" />
<glyph unicode="[" horiz-adv-x="673" d="M197 -379v1983h460v-150h-282v-1683h282v-150h-460z" />
<glyph unicode="\" horiz-adv-x="786" d="M-49 1604h190l695 -1983h-195z" />
<glyph unicode="]" horiz-adv-x="673" d="M16 -229h283v1683h-283v150h461v-1983h-461v150z" />
<glyph unicode="^" d="M96 723l398 696h168l397 -696l-152 -78l-329 578l-330 -578z" />
<glyph unicode="_" horiz-adv-x="1007" d="M-8 -217h1024v-162h-1024v162z" />
<glyph unicode="`" horiz-adv-x="770" d="M125 1468l123 121l262 -315l-96 -86z" />
<glyph unicode="a" horiz-adv-x="1069" d="M88 317q0 169 134 254q119 76 315 76q90 0 194 -26v53q0 254 -239 254q-168 0 -271 -41l-22 157q37 16 123 32t193.5 16t186 -30t126.5 -84q90 -100 90 -294v-666q-256 -41 -381 -41t-201 18.5t-131 58.5q-117 85 -117 263zM281 316.5q0 -99.5 65 -139.5t196 -40t189 15 v317q-50 25 -135.5 25t-133.5 -6.5t-88 -25.5q-93 -46 -93 -145.5z" />
<glyph unicode="b" horiz-adv-x="1206" d="M164 31v1525l190 33v-571q35 23 105.5 47.5t174.5 24.5t192.5 -41t149.5 -115q126 -151 126 -402q0 -256 -146 -407q-69 -72 -167.5 -111t-265.5 -39t-359 56zM354 166q83 -23 224 -23t233 101.5t92 287.5q0 276 -165 360q-58 30 -138 30t-145.5 -27t-100.5 -55v-674z " />
<glyph unicode="c" horiz-adv-x="952" d="M104 530q0 246 138 403q138 159 372 159q154 0 281 -52l-43 -161q-97 45 -219 45q-160 0 -245 -100.5t-85 -293.5q0 -278 189 -359q65 -28 180 -28t213 45l26 -159q-47 -30 -145 -42t-139 -12q-250 0 -391 156q-132 147 -132 399z" />
<glyph unicode="d" horiz-adv-x="1206" d="M104 532q0 251 126 402q129 156 354 156q92 0 162.5 -25t105.5 -47v538l190 33v-1558q-205 -56 -365.5 -56t-259 39t-167.5 111q-146 151 -146 407zM303 529q0 -183 92 -284.5t233 -101.5t224 23v674q-35 29 -100.5 55.5t-145.5 26.5t-138 -30t-95 -82q-70 -98 -70 -281z " />
<glyph unicode="e" horiz-adv-x="1144" d="M104 530q0 269 150 422q136 140 343.5 140t322 -134.5t114.5 -408.5v-31q0 -20 -2 -37h-729q12 -166 96 -252t256 -86t279 52l27 -160q-35 -18 -122 -39t-212 -21t-226.5 42t-166.5 116q-130 146 -130 397zM307 635h529v7q0 124 -64 205q-66 83 -184 83q-122 0 -201 -92 q-66 -78 -80 -203z" />
<glyph unicode="f" horiz-adv-x="790" d="M164 0v1161q0 428 416 428q149 0 229 -35l-35 -163q-71 34 -192 34q-228 0 -228 -268v-92h410v-160h-410v-905h-190z" />
<glyph unicode="g" horiz-adv-x="1183" d="M104 555q0 236 136 382q141 150 381 150q179 0 399 -55v-950q0 -246 -127 -356.5t-385 -110.5q-182 0 -344 55l35 166q141 -57 312 -57t245.5 67.5t74.5 214.5v45q-25 -16 -95 -41.5t-165.5 -25.5t-180.5 30.5t-148 94.5q-138 140 -138 391zM303 553q0 -172 87 -266 q78 -84 200 -84q76 0 139.5 21.5t99.5 49.5v623q-83 23 -221.5 23t-221.5 -100.5t-83 -266.5z" />
<glyph unicode="h" horiz-adv-x="1169" d="M164 0v1556l190 33v-545q114 43 237.5 43t207.5 -35.5t134 -99.5q91 -118 91 -354v-598h-190v557q0 201 -58 281q-59 82 -209 82q-117 0 -213 -35v-885h-190z" />
<glyph unicode="i" horiz-adv-x="518" d="M135 1382q0 57 36 91t87 34t87 -33.5t36 -91.5q0 -57 -36 -91t-87 -34t-87 34t-36 91zM164 0v1065h190v-1065h-190z" />
<glyph unicode="j" horiz-adv-x="518" d="M-139 -360l24 155q47 -14 97 -14q98 0 140 60.5t42 176.5v1047h190v-1045q0 -403 -364 -403q-75 0 -129 23zM135 1382q0 57 36 91t87 34t87 -33.5t36 -91.5q0 -57 -36 -91t-87 -34t-87 34t-36 91z" />
<glyph unicode="k" horiz-adv-x="1069" d="M164 0v1556l190 33v-971l108 108q160 160 314 339h223q-47 -51 -102 -112.5t-114.5 -124t-120 -125t-113.5 -117.5q187 -144 391 -431q59 -83 100 -155h-223q-138 231 -341 416q-64 57 -122 96v-512h-190z" />
<glyph unicode="l" horiz-adv-x="559" d="M160 279v1277l190 33v-1280q0 -91 35 -127q30 -30 125 -43l-27 -159q-176 4 -249.5 75.5t-73.5 223.5z" />
<glyph unicode="m" horiz-adv-x="1763" d="M164 0v1034q219 53 416.5 53t293.5 -108q90 64 222 95q55 13 148 13t171 -35.5t122 -101.5q75 -111 75 -352v-598h-191v557q0 197 -43 275q-50 88 -184 88q-96 0 -158.5 -26t-85.5 -46q33 -109 33 -250v-598h-190v557q0 192 -47 275q-25 45 -69 66.5t-141.5 21.5 t-181.5 -21v-899h-190z" />
<glyph unicode="n" horiz-adv-x="1175" d="M164 0v1034q219 53 385 53t250 -35.5t134 -99.5q91 -118 91 -354v-598h-190v557q0 201 -58 281q-59 82 -220 82q-86 0 -202 -21v-899h-190z" />
<glyph unicode="o" horiz-adv-x="1208" d="M104 532q0 250 140 406q139 154 360 154t360 -154q140 -156 140 -407q0 -126 -37 -228t-103 -176q-139 -154 -360 -154t-360 154q-140 156 -140 405zM303 532q0 -180 81 -285.5t220 -105.5t220 105.5t81 285.5t-81 286t-220 106t-220 -105.5t-81 -286.5z" />
<glyph unicode="p" horiz-adv-x="1206" d="M164 -379v1411q68 16 169 35.5t229 19.5t226.5 -38.5t168 -110.5t107.5 -175.5t38 -228.5t-32 -227t-94 -176q-129 -156 -353 -156q-92 0 -163 25t-106 47v-426h-190zM354 225q35 -29 100.5 -55.5t145.5 -26.5t138.5 30t95.5 82q69 99 69 280t-92 282t-236.5 101 t-220.5 -21v-672z" />
<glyph unicode="q" horiz-adv-x="1206" d="M104 530q0 257 146 408q69 72 167.5 110.5t253 38.5t371.5 -55v-1411h-190v426q-35 -23 -105.5 -47.5t-174 -24.5t-192.5 41t-150 115q-126 151 -126 399zM303 530q0 -272 165 -357q58 -30 138 -30t145.5 27t100.5 55v672q-76 21 -220.5 21t-236.5 -101t-92 -287z" />
<glyph unicode="r" horiz-adv-x="790" d="M164 0v1020q182 67 393 67q68 0 134.5 -13t78.5 -17l-33 -166q-89 31 -178.5 31t-204.5 -27v-895h-190z" />
<glyph unicode="s" horiz-adv-x="913" d="M82 35l35 164q33 -12 104.5 -37t189.5 -25t174 31t56 99.5t-55.5 109.5t-149.5 79t-150.5 63.5t-97.5 60.5q-90 75 -90 210t104.5 218.5t284.5 83.5q119 0 243 -33q30 -8 46 -15l-35 -163q-99 51 -254 51q-80 0 -139 -32t-59 -99q0 -68 54 -109q45 -35 144 -72 t158.5 -64.5t100.5 -63.5q88 -77 88 -221t-110 -220t-312 -76q-185 0 -330 60z" />
<glyph unicode="t" horiz-adv-x="823" d="M152 412v950l190 33v-330h403v-160h-403v-491q0 -155 50 -214q45 -55 139 -55t146 19.5t73 28.5l36 -158q-120 -58 -246.5 -58t-197 28t-113.5 83q-77 98 -77 324z" />
<glyph unicode="u" horiz-adv-x="1175" d="M152 467v598h190v-557q0 -195 61.5 -279t206.5 -84q68 0 134.5 8.5t76.5 12.5v899h191v-1034q-223 -54 -384 -54t-245 36t-135 101q-96 124 -96 353z" />
<glyph unicode="v" horiz-adv-x="1028" d="M33 1065h205q74 -296 206 -655q39 -105 74 -187q170 399 281 842h196q-133 -496 -395 -1065h-172q-262 569 -395 1065z" />
<glyph unicode="w" horiz-adv-x="1591" d="M37 1065h205q94 -453 241 -834q133 364 240 834h158q50 -256 125 -496.5t110 -337.5q132 333 242 834h196q-162 -634 -354 -1065h-166q-150 387 -239 731q-91 -352 -238 -731h-166q-192 431 -354 1065z" />
<glyph unicode="x" horiz-adv-x="1046" d="M33 0q113 218 368 559l-352 506h215l254 -373l256 373h203l-344 -494q98 -133 201.5 -281.5t175.5 -289.5h-209q-97 189 -287 438q-169 -221 -285 -438h-196z" />
<glyph unicode="y" horiz-adv-x="1017" d="M4 -352l35 153q64 -28 153 -28t152.5 50t114.5 163q-291 554 -426 1079h205q116 -462 303 -860q125 345 243 860h197q-152 -619 -358 -1098q-84 -189 -183 -268q-104 -84 -270 -84q-100 0 -166 33z" />
<glyph unicode="z" horiz-adv-x="964" d="M74 0v127q132 243 424 617q75 96 131 161h-527v160h768v-143q-85 -93 -216 -261q-240 -308 -353 -501h586v-160h-813z" />
<glyph unicode="{" horiz-adv-x="681" d="M82 539v147q89 0 142 62q46 54 46 137v368q0 179 82 259q94 92 305 92h9v-150q-117 0 -167 -42t-50 -161v-315q0 -135 -36 -209t-102 -115q66 -41 102 -114.5t36 -208.5v-316q0 -119 50 -160.5t167 -41.5v-150h-9q-312 0 -369 201q-18 65 -18 149v369q0 130 -104 182 q-35 17 -84 17z" />
<glyph unicode="|" horiz-adv-x="571" d="M197 -379v1983h178v-1983h-178z" />
<glyph unicode="}" horiz-adv-x="681" d="M16 -229q117 0 167 42t50 160v316q0 135 36 208.5t102 114.5q-66 41 -102 115t-36 209v315q0 119 -50 161t-167 42v150h9q312 0 369 -202q18 -65 18 -149v-368q0 -129 104 -181q35 -18 84 -18v-147q-89 0 -142 -63q-46 -53 -46 -136v-369q0 -178 -82 -260 q-90 -90 -305 -90h-9v150z" />
<glyph unicode="~" d="M86 496q38 185 159 256q50 30 116.5 30t118.5 -24.5t103.5 -55t102.5 -62.5t96.5 -32t67.5 15.5t38 38.5q25 36 46 106l131 -37q-36 -183 -159 -257q-50 -30 -116.5 -30t-119 25t-103.5 55.5t-102 62t-96.5 31.5t-67.5 -15t-39 -39q-23 -33 -45 -105z" />
<glyph unicode="&#xa1;" horiz-adv-x="565" d="M145 928q0 55 37 96t101 41q63 0 100 -41t37 -96t-37 -96t-100 -41t-100.5 41t-37.5 96zM180 4q0 260 43 592h119q43 -332 43 -592v-383h-205v383z" />
<glyph unicode="&#xa2;" d="M176 596q0 200 106 346q105 146 289 182v295h170v-284q119 -6 226 -48l-43 -157q-103 43 -219 43q-160 0 -245 -96.5t-85 -280.5q0 -266 189 -344q65 -27 176.5 -27t215.5 43l27 -155q-29 -16 -98.5 -31.5t-143.5 -20.5v-284h-170v295q-191 35 -295 178 q-100 140 -100 346z" />
<glyph unicode="&#xa3;" d="M123 610v154h190v170q0 417 263 490q81 22 175.5 22t156 -16.5t118.5 -38.5l-47 -164q-109 51 -231 51q-119 0 -178 -72q-66 -82 -66 -268v-174h387v-154h-387v-16q0 -220 -33 -430h592v-164h-807q57 359 57 580v30h-190z" />
<glyph unicode="&#xa4;" d="M90 342l150 150q-58 92 -58 218t58 218l-150 151l119 119l151 -154q96 59 218 60q121 0 215 -60l153 154l119 -119l-152 -151q60 -93 60 -217t-60 -217l152 -152l-119 -119l-153 152q-98 -57 -217.5 -57.5t-215.5 57.5l-151 -152zM336 710q0 -58 19.5 -104.5t52.5 -79.5 q66 -69 170 -69q103 0 170 69q71 73 71 184q0 58 -19.5 105t-51.5 81q-66 69 -170 69q-160 0 -222 -150q-20 -47 -20 -105z" />
<glyph unicode="&#xa5;" d="M35 1419h211q152 -329 338 -626q156 254 331 626h207q-218 -412 -399 -702h281v-146h-332v-209h332v-145h-332v-217h-187v217h-331v145h331v209h-331v146h278q-194 315 -397 702z" />
<glyph unicode="&#xa6;" horiz-adv-x="571" d="M197 -379v785h178v-785h-178zM197 819v785h178v-785h-178z" />
<glyph unicode="&#xa7;" horiz-adv-x="1007" d="M88 633q0 93 60 183q41 61 122 112q-110 88 -110 223t99 218t280 83q146 0 338 -57l-43 -158q-49 18 -120 38.5t-164 20.5t-151.5 -33.5t-58.5 -101.5t52 -109q48 -40 143.5 -71t162 -59.5t116.5 -69.5q108 -89 108 -238q0 -91 -58 -178q-47 -72 -119 -114 q134 -98 134 -243t-108.5 -223.5t-309.5 -78.5q-228 0 -369 69l47 152q145 -64 324 -64q231 0 231 142q0 72 -55 111.5t-157.5 74.5t-169 63.5t-116.5 69.5q-108 87 -108 238zM262 651q0 -94 89 -153q58 -38 224 -92q10 -4 19.5 -7.5t19.5 -7.5q134 89 134 205q0 94 -89 152 q-64 41 -143 66q-90 29 -121 42q-133 -88 -133 -205z" />
<glyph unicode="&#xa8;" horiz-adv-x="770" d="M72 1382q0 53 35.5 87t82.5 34t83 -33.5t36 -87.5q0 -53 -36 -86.5t-83 -33.5t-82.5 33.5t-35.5 86.5zM461 1382q0 53 35.5 87t83.5 34q47 0 82.5 -33.5t35.5 -87.5q0 -53 -35.5 -86.5t-82.5 -33.5t-83 33.5t-36 86.5z" />
<glyph unicode="&#xa9;" horiz-adv-x="1667" d="M133 711q0 174 57.5 312t153.5 233q197 196 490 196q139 0 266 -50t223 -145.5t153.5 -233.5t57.5 -312t-57.5 -312.5t-153.5 -233.5t-223 -145.5t-266 -50.5t-266.5 50.5t-223.5 145.5t-153.5 233.5t-57.5 312.5zM283 711q0 -269 155 -439q151 -166 396 -166 q243 0 396 166q154 168 154 439q0 269 -154 438q-151 166 -396 166q-246 0 -396 -166q-155 -170 -155 -438zM465 711q0 192 117 310q110 112 276 112q134 0 228 -51q22 -11 30 -17l-47 -123q-95 53 -202 53t-176.5 -72.5t-69.5 -205.5t63.5 -214t182 -81t216.5 49l39 -123 q-102 -61 -264 -61q-175 0 -284 111t-109 313z" />
<glyph unicode="&#xaa;" horiz-adv-x="796" d="M78 913q0 122 98 181q86 53 230 53q69 0 141 -10v6q0 170 -168 170q-122 0 -201 -27l-20 129q121 31 217 31t153.5 -20.5t93.5 -57.5q66 -69 66 -207v-459q-137 -28 -253 -28t-172 13t-97 42q-88 62 -88 184zM221 911.5q0 -110.5 180 -110.5q126 0 146 8v205 q-46 8 -125 8q-201 0 -201 -110.5z" />
<glyph unicode="&#xab;" horiz-adv-x="1021" d="M61 582l320 452l133 -71l-227 -381l227 -381l-133 -72zM487 582l320 452l133 -71l-227 -381l227 -381l-133 -72z" />
<glyph unicode="&#xac;" d="M109 645v162h938v-698h-164v536h-774z" />
<glyph unicode="&#xad;" horiz-adv-x="612" d="M53 524v178h506v-178h-506z" />
<glyph unicode="&#xae;" horiz-adv-x="1667" d="M133 711q0 174 57.5 312t153.5 233q197 196 490 196q139 0 266 -50t223 -145.5t153.5 -233.5t57.5 -312t-57.5 -312.5t-153.5 -233.5t-223 -145.5t-266 -50.5t-266.5 50.5t-223.5 145.5t-153.5 233.5t-57.5 312.5zM283 711q0 -269 155 -439q151 -166 396 -166 q243 0 396 166q154 168 154 439q0 269 -154 438q-151 166 -396 166q-246 0 -396 -166q-155 -170 -155 -438zM547 303v795q110 24 229 24q361 0 361 -264q0 -154 -154 -219q129 -161 211 -336h-158q-87 170 -207 307h-137v-307h-145zM692 729h78q92 0 153.5 25.5t61.5 105.5 q0 135 -199 135q-48 0 -94 -4v-262z" />
<glyph unicode="&#xaf;" horiz-adv-x="770" d="M94 1309v147h582v-147h-582z" />
<glyph unicode="&#xb0;" horiz-adv-x="679" d="M53 1305q0 128 86 209q81 75 201 75t201 -75q86 -81 86 -209q0 -127 -86 -209q-80 -76 -201 -76t-201 76q-86 82 -86 209zM190 1305q0 -72 44.5 -114t105.5 -42t105 42t44 114t-44 113.5t-105 41.5t-105.5 -42t-44.5 -113z" />
<glyph unicode="&#xb1;" d="M109 0v162h938v-162h-938zM109 696v162h387v412h163v-412h388v-162h-388v-411h-163v411h-387z" />
<glyph unicode="&#xb2;" horiz-adv-x="735" d="M61 1343q35 37 106 73t163 36q276 0 276 -227q0 -108 -147 -245q-43 -40 -85 -76t-76 -69.5t-40 -60.5h381v-129h-545q-15 167 123 294q39 36 95.5 84t100.5 98t44 100q0 102 -127 102q-95 0 -195 -80z" />
<glyph unicode="&#xb3;" horiz-adv-x="735" d="M66 676l30 123q121 -43 214.5 -43t134 33.5t40.5 78t-18 69t-50 39.5q-64 30 -157 30h-39v116h51q117 0 160 56q17 22 17 53q0 94 -136 94q-55 0 -102 -19.5t-82 -35.5l-51 112q33 23 101.5 46.5t137.5 23.5q150 0 212.5 -60.5t62.5 -157.5t-113 -161q72 -23 114 -75 t42 -114.5t-18.5 -106.5t-59.5 -77q-86 -71 -260 -71q-63 0 -129 14t-102 33z" />
<glyph unicode="&#xb4;" horiz-adv-x="770" d="M260 1274l262 315l123 -121l-289 -280z" />
<glyph unicode="&#xb5;" horiz-adv-x="1187" d="M164 -379v1444h190v-569q0 -195 63.5 -273t205.5 -78q67 0 133.5 8.5t77.5 12.5v899h190v-1034q-223 -54 -365.5 -54t-209 24t-107.5 69q10 -95 10 -238v-211h-188z" />
<glyph unicode="&#xb6;" horiz-adv-x="1323" d="M88 981q0 220 178 338q174 115 484 115q219 0 366 -35v-1778h-160v1645q-73 10 -138 10t-89 -4v-1651h-160v916q-227 23 -354 129t-127 315z" />
<glyph unicode="&#xb7;" horiz-adv-x="503" d="M115 603q0 55 36.5 96t100.5 41q63 0 100 -41t37 -96t-37 -96.5t-100 -41.5t-100 41t-37 97z" />
<glyph unicode="&#xb8;" horiz-adv-x="770" d="M141 -360l23 116q63 -20 126 -20t62 47q0 23 -22 38q-21 13 -78 38q6 20 18.5 47.5t24.5 54.5q20 45 41 80h131q-52 -100 -59 -117q59 -29 85.5 -62.5t26.5 -78t-10 -70.5t-34 -49q-57 -51 -167 -51q-102 0 -168 27z" />
<glyph unicode="&#xb9;" horiz-adv-x="735" d="M102 1272q182 63 285 164h100v-791h-143v602q-66 -43 -203 -86z" />
<glyph unicode="&#xba;" horiz-adv-x="913" d="M88 1061q0 177 104 283t265 106q162 0 264 -106q104 -107 104 -283q0 -175 -104 -283q-102 -106 -264 -106t-265 106q-104 108 -104 283zM240 1062q0 -114 56 -183.5t161 -69.5q104 0 160.5 69.5t56.5 183.5t-56.5 182.5t-159.5 68.5t-160.5 -68.5t-57.5 -182.5z" />
<glyph unicode="&#xbb;" horiz-adv-x="1021" d="M82 201l227 381l-227 381l133 71l320 -452l-320 -453zM508 201l227 381l-227 381l133 71l320 -452l-320 -453z" />
<glyph unicode="&#xbc;" horiz-adv-x="1789" d="M102 1272q182 63 285 164h100v-791h-143v602q-66 -43 -203 -86zM401 0l801 1419h178l-801 -1419h-178zM1104 197v94q108 191 285 388q59 66 119 118h131v-480h102v-120h-102v-191h-140v191h-395zM1258 317h241v310q-147 -154 -241 -310z" />
<glyph unicode="&#xbd;" horiz-adv-x="1789" d="M102 1272q182 63 285 164h100v-791h-143v602q-66 -43 -203 -86zM358 0l801 1419h178l-801 -1419h-178zM1116 704q35 37 106 73t163 36q276 0 276 -227q0 -108 -147 -245q-43 -40 -85 -76t-76 -69.5t-40 -60.5h381v-129h-545q-15 167 123 294q39 36 95.5 84t100.5 98 t44 100q0 102 -127 102q-95 0 -195 -80z" />
<glyph unicode="&#xbe;" horiz-adv-x="1789" d="M66 676l30 123q121 -43 214.5 -43t134 33.5t40.5 78t-18 69t-50 39.5q-64 30 -157 30h-39v116h51q117 0 160 56q17 22 17 53q0 94 -136 94q-55 0 -102 -19.5t-82 -35.5l-51 112q33 23 101.5 46.5t137.5 23.5q150 0 212.5 -60.5t62.5 -157.5t-113 -161q72 -23 114 -75 t42 -114.5t-18.5 -106.5t-59.5 -77q-86 -71 -260 -71q-63 0 -129 14t-102 33zM432 0l801 1419h178l-801 -1419h-178zM1104 197v94q108 191 285 388q59 66 119 118h131v-480h102v-120h-102v-191h-140v191h-395zM1258 317h241v310q-147 -154 -241 -310z" />
<glyph unicode="&#xbf;" horiz-adv-x="827" d="M57 -70q0 145 173 314q104 102 138.5 173.5t34.5 139.5v19q0 10 -2 20h160q8 -41 8 -93.5t-23.5 -105.5t-57 -99t-74.5 -87t-75 -82q-81 -98 -81 -176t56.5 -128t174 -50t246.5 69l53 -147q-155 -82 -342 -82q-200 0 -304 102q-85 83 -85 213zM334 928q0 55 37 96t100 41 t100 -41t37 -96t-36.5 -96t-100.5 -41q-63 0 -100 41t-37 96z" />
<glyph unicode="&#xc0;" horiz-adv-x="1357" d="M16 0q349 959 572 1419h182q240 -499 571 -1419h-217l-129 362h-643l-129 -362h-207zM410 526h528q-165 445 -264 666q-120 -256 -264 -666zM432 1787l123 121l262 -315l-96 -86z" />
<glyph unicode="&#xc1;" horiz-adv-x="1357" d="M16 0q349 959 572 1419h182q240 -499 571 -1419h-217l-129 362h-643l-129 -362h-207zM410 526h528q-165 445 -264 666q-120 -256 -264 -666zM551 1593l262 315l123 -121l-289 -280z" />
<glyph unicode="&#xc2;" horiz-adv-x="1357" d="M16 0q349 959 572 1419h182q240 -499 571 -1419h-217l-129 362h-643l-129 -362h-207zM399 1601l279 293l279 -293l-80 -90l-199 180l-199 -180zM410 526h528q-165 445 -264 666q-120 -256 -264 -666z" />
<glyph unicode="&#xc3;" horiz-adv-x="1357" d="M16 0q349 959 572 1419h182q240 -499 571 -1419h-217l-129 362h-643l-129 -362h-207zM342 1628q36 111 134 165q36 19 78 19q54 0 118 -31q100 -47 135 -47t64.5 29t46.5 61l98 -49q-47 -117 -134 -164q-36 -20 -78 -20q-60 0 -147 45q-72 33 -106.5 33t-64 -29 t-46.5 -61zM410 526h528q-165 445 -264 666q-120 -256 -264 -666z" />
<glyph unicode="&#xc4;" horiz-adv-x="1357" d="M16 0q349 959 572 1419h182q240 -499 571 -1419h-217l-129 362h-643l-129 -362h-207zM365 1701q0 53 35.5 87t82.5 34t83 -33.5t36 -87.5q0 -53 -36 -86.5t-83 -33.5t-82.5 33.5t-35.5 86.5zM410 526h528q-165 445 -264 666q-120 -256 -264 -666zM754 1701q0 53 35.5 87 t83.5 34q47 0 82.5 -33.5t35.5 -87.5q0 -53 -35.5 -86.5t-82.5 -33.5t-83 33.5t-36 86.5z" />
<glyph unicode="&#xc5;" horiz-adv-x="1357" d="M16 0q325 893 533 1337q-84 62 -84 172q0 91 63 153q57 56 148 56q137 0 194 -122q17 -37 17 -87q0 -104 -82 -168q210 -448 536 -1341h-217l-129 365h-643l-129 -365h-207zM410 526h528q-165 445 -264 666q-126 -269 -264 -666zM567 1509q0 -53 32 -82.5t77 -29.5 t76.5 29.5t31.5 82.5t-31.5 83t-76.5 30t-77 -29.5t-32 -83.5z" />
<glyph unicode="&#xc6;" horiz-adv-x="1914" d="M12 0q414 783 862 1419h914v-166h-617v-428h543v-161h-543v-498h668v-166h-864v365h-559q-123 -225 -191 -365h-213zM508 526h467v738q-188 -253 -467 -738z" />
<glyph unicode="&#xc7;" horiz-adv-x="1269" d="M119 711q0 344 201 549q188 192 477 192q148 0 281 -41q83 -25 130 -57l-57 -164q-36 24 -106 47q-125 41 -233 41t-198 -39t-154 -113q-130 -151 -130 -415q0 -262 118 -411q125 -157 357 -157q198 0 362 80l52 -164q-29 -23 -138.5 -54.5t-277.5 -35.5q-15 -30 -21 -45 q59 -29 86 -62.5t27 -78t-10.5 -70.5t-34.5 -49q-57 -51 -166 -51q-102 0 -168 27l23 116q63 -20 125.5 -20t62.5 47q0 23 -23 38q-20 13 -77 38q16 49 49 118q-257 32 -404 223q-153 196 -153 511z" />
<glyph unicode="&#xc8;" horiz-adv-x="1169" d="M176 0v1419h866v-170h-667v-422h594v-165h-594v-492h719v-170h-918zM410 1787l123 121l262 -315l-96 -86z" />
<glyph unicode="&#xc9;" horiz-adv-x="1169" d="M176 0v1419h866v-170h-667v-422h594v-165h-594v-492h719v-170h-918zM518 1593l262 315l123 -121l-289 -280z" />
<glyph unicode="&#xca;" horiz-adv-x="1169" d="M176 0v1419h866v-170h-667v-422h594v-165h-594v-492h719v-170h-918zM329 1601l279 293l279 -293l-80 -90l-199 180l-199 -180z" />
<glyph unicode="&#xcb;" horiz-adv-x="1169" d="M176 0v1419h866v-170h-667v-422h594v-165h-594v-492h719v-170h-918zM295 1701q0 53 35.5 87t82.5 34t83 -33.5t36 -87.5q0 -53 -36 -86.5t-83 -33.5t-82.5 33.5t-35.5 86.5zM684 1701q0 53 35.5 87t83.5 34q47 0 82.5 -33.5t35.5 -87.5q0 -53 -35.5 -86.5t-82.5 -33.5 t-83 33.5t-36 86.5z" />
<glyph unicode="&#xcc;" horiz-adv-x="550" d="M31 1787l123 121l262 -315l-96 -86zM176 0v1419h199v-1419h-199z" />
<glyph unicode="&#xcd;" horiz-adv-x="550" d="M139 1593l262 315l123 -121l-289 -280zM176 0v1419h199v-1419h-199z" />
<glyph unicode="&#xce;" horiz-adv-x="550" d="M-3 1601l279 293l279 -293l-80 -90l-199 180l-199 -180zM176 0v1419h199v-1419h-199z" />
<glyph unicode="&#xcf;" horiz-adv-x="550" d="M-37 1701q0 53 35.5 87t82.5 34t83 -33.5t36 -87.5q0 -53 -36 -86.5t-83 -33.5t-82.5 33.5t-35.5 86.5zM176 0v1419h199v-1419h-199zM352 1701q0 53 35.5 87t83.5 34q47 0 82.5 -33.5t35.5 -87.5q0 -53 -35.5 -86.5t-82.5 -33.5t-83 33.5t-36 86.5z" />
<glyph unicode="&#xd0;" horiz-adv-x="1486" d="M39 664v153h164v582q147 35 349 35t347 -44t249 -134q220 -187 220 -545q0 -359 -220 -546q-207 -177 -568 -177q-237 0 -377 35v641h-164zM401 168q54 -6 195 -6q283 0 422 144.5t139 404.5t-139 404.5t-422 144.5q-129 0 -195 -7v-436h267v-153h-267v-496z" />
<glyph unicode="&#xd1;" horiz-adv-x="1490" d="M176 0v1419h158q169 -180 350 -422q299 -401 436 -628v1050h195v-1419h-166q-297 502 -653 956q-68 86 -125 152v-1108h-195zM409 1628q36 111 134 165q36 19 78 19q54 0 118 -31q100 -47 135 -47t64.5 29t46.5 61l98 -49q-47 -117 -134 -164q-36 -20 -78 -20 q-60 0 -147 45q-72 33 -106.5 33t-64 -29t-46.5 -61z" />
<glyph unicode="&#xd2;" horiz-adv-x="1593" d="M119 711q0 352 201 553q188 188 481 188q289 0 473 -188q201 -204 201 -553q0 -350 -201 -555q-184 -187 -473 -187q-293 0 -481 187q-201 202 -201 555zM328 711q0 -260 126 -414q125 -154 343 -154q215 0 341 154q126 155 126 414q0 260 -126.5 413.5t-340.5 153.5 q-217 0 -343 -154q-126 -152 -126 -413zM551 1787l123 121l262 -315l-96 -86z" />
<glyph unicode="&#xd3;" horiz-adv-x="1593" d="M119 711q0 352 201 553q188 188 481 188q289 0 473 -188q201 -204 201 -553q0 -350 -201 -555q-184 -187 -473 -187q-293 0 -481 187q-201 202 -201 555zM328 711q0 -260 126 -414q125 -154 343 -154q215 0 341 154q126 155 126 414q0 260 -126.5 413.5t-340.5 153.5 q-217 0 -343 -154q-126 -152 -126 -413zM659 1593l262 315l123 -121l-289 -280z" />
<glyph unicode="&#xd4;" horiz-adv-x="1593" d="M119 711q0 352 201 553q188 188 481 188q289 0 473 -188q201 -204 201 -553q0 -350 -201 -555q-184 -187 -473 -187q-293 0 -481 187q-201 202 -201 555zM328 711q0 -260 126 -414q125 -154 343 -154q215 0 341 154q126 155 126 414q0 260 -126.5 413.5t-340.5 153.5 q-217 0 -343 -154q-126 -152 -126 -413zM518 1601l279 293l279 -293l-80 -90l-199 180l-199 -180z" />
<glyph unicode="&#xd5;" horiz-adv-x="1593" d="M119 711q0 352 201 553q188 188 481 188q289 0 473 -188q201 -204 201 -553q0 -350 -201 -555q-184 -187 -473 -187q-293 0 -481 187q-201 202 -201 555zM328 711q0 -260 126 -414q125 -154 343 -154q215 0 341 154q126 155 126 414q0 260 -126.5 413.5t-340.5 153.5 q-217 0 -343 -154q-126 -152 -126 -413zM461 1628q36 111 134 165q36 19 78 19q54 0 118 -31q100 -47 135 -47t64.5 29t46.5 61l98 -49q-47 -117 -134 -164q-36 -20 -78 -20q-60 0 -147 45q-72 33 -106.5 33t-64 -29t-46.5 -61z" />
<glyph unicode="&#xd6;" horiz-adv-x="1593" d="M119 711q0 352 201 553q188 188 481 188q289 0 473 -188q201 -204 201 -553q0 -350 -201 -555q-184 -187 -473 -187q-293 0 -481 187q-201 202 -201 555zM328 711q0 -260 126 -414q125 -154 343 -154q215 0 341 154q126 155 126 414q0 260 -126.5 413.5t-340.5 153.5 q-217 0 -343 -154q-126 -152 -126 -413zM484 1701q0 53 35.5 87t82.5 34t83 -33.5t36 -87.5q0 -53 -36 -86.5t-83 -33.5t-82.5 33.5t-35.5 86.5zM873 1701q0 53 35.5 87t83.5 34q47 0 82.5 -33.5t35.5 -87.5q0 -53 -35.5 -86.5t-82.5 -33.5t-83 33.5t-36 86.5z" />
<glyph unicode="&#xd7;" d="M164 313l299 299l-299 299l115 115l299 -299l299 299l114 -115l-299 -299l299 -299l-114 -114l-299 299l-299 -299z" />
<glyph unicode="&#xd8;" horiz-adv-x="1593" d="M119 711q0 352 201 553q188 188 481 188q217 0 385 -115l121 158l127 -94l-131 -170q172 -198 172 -520q0 -350 -201 -555q-184 -187 -473 -187q-217 0 -387 111l-119 -154l-127 94l127 164q-176 197 -176 527zM328 730q0 -242 90 -386l653 846q-113 88 -274 88 q-217 0 -343 -154q-126 -152 -126 -394zM526 227q109 -84 271 -84q215 0 341 154q126 155 126 414q0 207 -86 358z" />
<glyph unicode="&#xd9;" horiz-adv-x="1409" d="M166 528v891h199v-868q0 -213 94 -309.5t246 -96.5q243 0 315 223q24 76 24 183v868h199v-891q0 -390 -297 -516q-102 -43 -241 -43q-270 0 -411 161q-128 147 -128 398zM459 1787l123 121l262 -315l-96 -86z" />
<glyph unicode="&#xda;" horiz-adv-x="1409" d="M166 528v891h199v-868q0 -213 94 -309.5t246 -96.5q243 0 315 223q24 76 24 183v868h199v-891q0 -390 -297 -516q-102 -43 -241 -43q-270 0 -411 161q-128 147 -128 398zM567 1593l262 315l123 -121l-289 -280z" />
<glyph unicode="&#xdb;" horiz-adv-x="1409" d="M166 528v891h199v-868q0 -213 94 -309.5t246 -96.5q243 0 315 223q24 76 24 183v868h199v-891q0 -390 -297 -516q-102 -43 -241 -43q-270 0 -411 161q-128 147 -128 398zM425 1601l279 293l279 -293l-80 -90l-199 180l-199 -180z" />
<glyph unicode="&#xdc;" horiz-adv-x="1409" d="M166 528v891h199v-868q0 -213 94 -309.5t246 -96.5q243 0 315 223q24 76 24 183v868h199v-891q0 -390 -297 -516q-102 -43 -241 -43q-270 0 -411 161q-128 147 -128 398zM391 1701q0 53 35.5 87t82.5 34t83 -33.5t36 -87.5q0 -53 -36 -86.5t-83 -33.5t-82.5 33.5 t-35.5 86.5zM780 1701q0 53 35.5 87t83.5 34q47 0 82.5 -33.5t35.5 -87.5q0 -53 -35.5 -86.5t-82.5 -33.5t-83 33.5t-36 86.5z" />
<glyph unicode="&#xdd;" horiz-adv-x="1224" d="M12 1419h234q155 -333 372 -674q219 350 373 674h221q-228 -420 -499 -846v-573h-199v569q-263 408 -502 850zM477 1593l262 315l123 -121l-289 -280z" />
<glyph unicode="&#xde;" horiz-adv-x="1247" d="M176 0v1419h199v-231q59 6 162 6q637 0 637 -453q0 -233 -172 -347q-156 -103 -470 -103h-157v-291h-199zM375 455h149q223 0 323 59q118 70 118 229q0 226 -259 267q-79 12 -146 12h-106q-40 0 -79 -4v-563z" />
<glyph unicode="&#xdf;" horiz-adv-x="1275" d="M164 0v1135q0 209 112 329q117 125 326 125q317 0 394 -197q24 -60 24 -120.5t-14.5 -101t-35.5 -74.5q-35 -53 -176 -200q-32 -34 -32 -75t15.5 -63.5t40 -39t54 -30.5t72.5 -35t91 -51.5t84 -69.5q75 -83 75 -234t-99.5 -237t-308.5 -86q-154 0 -270 58l33 166 q124 -62 239 -62q213 0 213 166q0 80 -47 131t-139 93.5t-136 70t-69 56.5q-45 52 -45 132t45 135.5t81 92t57.5 61.5t39.5 51q41 55 41 107q0 90 -53 140t-160 50q-262 0 -262 -293v-1130h-190z" />
<glyph unicode="&#xe0;" horiz-adv-x="1069" d="M88 317q0 169 134 254q119 76 315 76q90 0 194 -26v53q0 254 -239 254q-168 0 -271 -41l-22 157q37 16 123 32t193.5 16t186 -30t126.5 -84q90 -100 90 -294v-666q-256 -41 -381 -41t-201 18.5t-131 58.5q-117 85 -117 263zM281 316.5q0 -99.5 65 -139.5t196 -40t189 15 v317q-50 25 -135.5 25t-133.5 -6.5t-88 -25.5q-93 -46 -93 -145.5zM293 1468l123 121l262 -315l-96 -86z" />
<glyph unicode="&#xe1;" horiz-adv-x="1069" d="M88 317q0 169 134 254q119 76 315 76q90 0 194 -26v53q0 254 -239 254q-168 0 -271 -41l-22 157q37 16 123 32t193.5 16t186 -30t126.5 -84q90 -100 90 -294v-666q-256 -41 -381 -41t-201 18.5t-131 58.5q-117 85 -117 263zM281 316.5q0 -99.5 65 -139.5t196 -40t189 15 v317q-50 25 -135.5 25t-133.5 -6.5t-88 -25.5q-93 -46 -93 -145.5zM401 1274l262 315l123 -121l-289 -280z" />
<glyph unicode="&#xe2;" horiz-adv-x="1069" d="M88 317q0 169 134 254q119 76 315 76q90 0 194 -26v53q0 254 -239 254q-168 0 -271 -41l-22 157q37 16 123 32t193.5 16t186 -30t126.5 -84q90 -100 90 -294v-666q-256 -41 -381 -41t-201 18.5t-131 58.5q-117 85 -117 263zM260 1282l279 293l279 -293l-80 -90l-199 180 l-199 -180zM281 316.5q0 -99.5 65 -139.5t196 -40t189 15v317q-50 25 -135.5 25t-133.5 -6.5t-88 -25.5q-93 -46 -93 -145.5z" />
<glyph unicode="&#xe3;" horiz-adv-x="1069" d="M88 317q0 169 134 254q119 76 315 76q90 0 194 -26v53q0 254 -239 254q-168 0 -271 -41l-22 157q37 16 123 32t193.5 16t186 -30t126.5 -84q90 -100 90 -294v-666q-256 -41 -381 -41t-201 18.5t-131 58.5q-117 85 -117 263zM203 1309q36 111 134 165q36 19 78 19 q54 0 118 -31q100 -47 135 -47t64.5 29t46.5 61l98 -49q-47 -117 -134 -164q-36 -20 -78 -20q-60 0 -147 45q-72 33 -106.5 33t-64 -29t-46.5 -61zM281 316.5q0 -99.5 65 -139.5t196 -40t189 15v317q-50 25 -135.5 25t-133.5 -6.5t-88 -25.5q-93 -46 -93 -145.5z" />
<glyph unicode="&#xe4;" horiz-adv-x="1069" d="M88 317q0 169 134 254q119 76 315 76q90 0 194 -26v53q0 254 -239 254q-168 0 -271 -41l-22 157q37 16 123 32t193.5 16t186 -30t126.5 -84q90 -100 90 -294v-666q-256 -41 -381 -41t-201 18.5t-131 58.5q-117 85 -117 263zM226 1382q0 53 35.5 87t82.5 34t83 -33.5 t36 -87.5q0 -53 -36 -86.5t-83 -33.5t-82.5 33.5t-35.5 86.5zM281 316.5q0 -99.5 65 -139.5t196 -40t189 15v317q-50 25 -135.5 25t-133.5 -6.5t-88 -25.5q-93 -46 -93 -145.5zM615 1382q0 53 35.5 87t83.5 34q47 0 82.5 -33.5t35.5 -87.5q0 -53 -35.5 -86.5t-82.5 -33.5 t-83 33.5t-36 86.5z" />
<glyph unicode="&#xe5;" horiz-adv-x="1069" d="M88 317q0 169 134 254q119 76 315 76q90 0 194 -26v53q0 254 -239 254q-168 0 -271 -41l-22 157q37 16 123 32t193.5 16t186 -30t126.5 -84q90 -100 90 -294v-666q-256 -41 -381 -41t-201 18.5t-131 58.5q-117 85 -117 263zM281 316.5q0 -99.5 65 -139.5t196 -40t189 15 v317q-50 25 -135.5 25t-133.5 -6.5t-88 -25.5q-93 -46 -93 -145.5zM328 1386q0 91 64 153q56 56 147 56q137 0 193 -122q18 -38 18 -87q0 -90 -64 -152q-56 -56 -147 -56q-137 0 -193 122q-18 37 -18 86zM430 1386q0 -53 32 -82.5t77 -29.5t77 29.5t32 82.5t-32 83t-77 30 t-77 -29.5t-32 -83.5z" />
<glyph unicode="&#xe6;" horiz-adv-x="1759" d="M90 317q0 169 134 254q119 76 315 76q88 0 192 -26v53q0 254 -239 254q-168 0 -271 -41l-22 157q37 16 122 32t183 16q261 0 348 -183q68 92 160 137.5t192 45.5q213 0 329 -135.5t116 -407.5l-2 -49v-19h-729q25 -338 352 -338q171 0 278 52l27 -160q-35 -18 -122 -39 t-198 -21q-220 0 -356 109q-156 -109 -369 -109q-440 0 -440 342zM283 315.5q0 -100.5 66.5 -139.5t178.5 -39q169 0 269 70q-64 118 -68 262q-57 25 -137 25t-128 -6.5t-88 -25.5q-93 -46 -93 -146.5zM922 635h528q2 129 -64.5 212t-183.5 83q-124 0 -200 -92 q-67 -82 -80 -203z" />
<glyph unicode="&#xe7;" horiz-adv-x="952" d="M104 530q0 246 138 403q138 159 372 159q154 0 281 -52l-43 -161q-97 45 -219 45q-160 0 -245 -100.5t-85 -293.5q0 -278 189 -359q65 -28 180 -28t213 45l26 -159q-91 -45 -260 -54l-22 -51q59 -29 85.5 -62.5t26.5 -78t-10 -70.5t-35 -49q-56 -51 -166 -51 q-102 0 -168 27l23 116q62 -20 125.5 -20t62.5 47q0 23 -23 38q-20 13 -77 38q19 59 53 125q-204 27 -315 178q-107 144 -107 368z" />
<glyph unicode="&#xe8;" horiz-adv-x="1144" d="M104 530q0 269 150 422q136 140 343.5 140t322 -134.5t114.5 -408.5v-31q0 -20 -2 -37h-729q12 -166 96 -252t256 -86t279 52l27 -160q-35 -18 -122 -39t-212 -21t-226.5 42t-166.5 116q-130 146 -130 397zM307 635h529q2 129 -64.5 212t-183.5 83q-122 0 -201 -92 q-66 -78 -80 -203zM340 1468l123 121l262 -315l-96 -86z" />
<glyph unicode="&#xe9;" horiz-adv-x="1144" d="M104 530q0 269 150 422q136 140 343.5 140t322 -134.5t114.5 -408.5v-31q0 -20 -2 -37h-729q12 -166 96 -252t256 -86t279 52l27 -160q-35 -18 -122 -39t-212 -21t-226.5 42t-166.5 116q-130 146 -130 397zM307 635h529q2 129 -64.5 212t-183.5 83q-122 0 -201 -92 q-66 -78 -80 -203zM448 1274l262 315l123 -121l-289 -280z" />
<glyph unicode="&#xea;" horiz-adv-x="1144" d="M104 530q0 269 150 422q136 140 343.5 140t322 -134.5t114.5 -408.5v-31q0 -20 -2 -37h-729q12 -166 96 -252t256 -86t279 52l27 -160q-35 -18 -122 -39t-212 -21t-226.5 42t-166.5 116q-130 146 -130 397zM307 635h529q2 129 -64.5 212t-183.5 83q-122 0 -201 -92 q-66 -78 -80 -203zM307 1282l279 293l279 -293l-80 -90l-199 180l-199 -180z" />
<glyph unicode="&#xeb;" horiz-adv-x="1144" d="M104 530q0 269 150 422q136 140 343.5 140t322 -134.5t114.5 -408.5v-31q0 -20 -2 -37h-729q12 -166 96 -252t256 -86t279 52l27 -160q-35 -18 -122 -39t-212 -21t-226.5 42t-166.5 116q-130 146 -130 397zM273 1382q0 53 35.5 87t82.5 34t83 -33.5t36 -87.5 q0 -53 -36 -86.5t-83 -33.5t-82.5 33.5t-35.5 86.5zM307 635h529q2 129 -64.5 212t-183.5 83q-122 0 -201 -92q-66 -78 -80 -203zM662 1382q0 53 35.5 87t83.5 34q47 0 82.5 -33.5t35.5 -87.5q0 -53 -35.5 -86.5t-82.5 -33.5t-83 33.5t-36 86.5z" />
<glyph unicode="&#xec;" horiz-adv-x="518" d="M14 1468l123 121l262 -315l-96 -86zM164 0v1065h190v-1065h-190z" />
<glyph unicode="&#xed;" horiz-adv-x="518" d="M123 1274l262 315l123 -121l-289 -280zM164 0v1065h190v-1065h-190z" />
<glyph unicode="&#xee;" horiz-adv-x="518" d="M-19 1282l279 293l279 -293l-80 -90l-199 180l-199 -180zM164 0v1065h190v-1065h-190z" />
<glyph unicode="&#xef;" horiz-adv-x="518" d="M-53 1382q0 53 35.5 87t82.5 34t83 -33.5t36 -87.5q0 -53 -36 -86.5t-83 -33.5t-82.5 33.5t-35.5 86.5zM164 0v1065h190v-1065h-190zM336 1382q0 53 35.5 87t83.5 34q47 0 82.5 -33.5t35.5 -87.5q0 -53 -35.5 -86.5t-82.5 -33.5t-83 33.5t-36 86.5z" />
<glyph unicode="&#xf0;" horiz-adv-x="1206" d="M104 508q0 228 130 364q126 132 350 132q104 0 182 -33t115 -62q-25 164 -113 303l-246 -84l-47 129l209 72q-68 80 -172 156l121 104q122 -78 221 -203l254 89l47 -129l-219 -76q156 -262 156 -598q0 -485 -260 -640q-97 -59 -231 -59t-225 45t-152 119 q-120 147 -120 371zM299 508q0 -156 73 -257q79 -110 216 -110q309 0 309 525l-2 65q-123 107 -287 107q-157 0 -237 -97q-72 -88 -72 -233z" />
<glyph unicode="&#xf1;" horiz-adv-x="1175" d="M164 0v1034q219 53 385 53t250 -35.5t134 -99.5q91 -118 91 -354v-598h-190v557q0 201 -58 281q-59 82 -220 82q-86 0 -202 -21v-899h-190zM258 1309q36 111 134 165q36 19 78 19q54 0 118 -31q100 -47 135 -47t64.5 29t46.5 61l98 -49q-47 -117 -134 -164 q-36 -20 -78 -20q-60 0 -147 45q-72 33 -106.5 33t-64 -29t-46.5 -61z" />
<glyph unicode="&#xf2;" horiz-adv-x="1208" d="M104 532q0 250 140 406q139 154 360 154t360 -154q140 -156 140 -407q0 -126 -37 -228t-103 -176q-139 -154 -360 -154t-360 154q-140 156 -140 405zM303 532q0 -180 81 -285.5t220 -105.5t220 105.5t81 285.5t-81 286t-220 106t-220 -105.5t-81 -286.5zM358 1468 l123 121l262 -315l-96 -86z" />
<glyph unicode="&#xf3;" horiz-adv-x="1208" d="M104 532q0 250 140 406q139 154 360 154t360 -154q140 -156 140 -407q0 -126 -37 -228t-103 -176q-139 -154 -360 -154t-360 154q-140 156 -140 405zM303 532q0 -180 81 -285.5t220 -105.5t220 105.5t81 285.5t-81 286t-220 106t-220 -105.5t-81 -286.5zM467 1274 l262 315l123 -121l-289 -280z" />
<glyph unicode="&#xf4;" horiz-adv-x="1208" d="M104 532q0 250 140 406q139 154 360 154t360 -154q140 -156 140 -407q0 -126 -37 -228t-103 -176q-139 -154 -360 -154t-360 154q-140 156 -140 405zM303 532q0 -180 81 -285.5t220 -105.5t220 105.5t81 285.5t-81 286t-220 106t-220 -105.5t-81 -286.5zM325 1282 l279 293l279 -293l-80 -90l-199 180l-199 -180z" />
<glyph unicode="&#xf5;" horiz-adv-x="1208" d="M104 532q0 250 140 406q139 154 360 154t360 -154q140 -156 140 -407q0 -126 -37 -228t-103 -176q-139 -154 -360 -154t-360 154q-140 156 -140 405zM268 1309q36 111 134 165q36 19 78 19q54 0 118 -31q100 -47 135 -47t64.5 29t46.5 61l98 -49q-47 -117 -134 -164 q-36 -20 -78 -20q-60 0 -147 45q-72 33 -106.5 33t-64 -29t-46.5 -61zM303 532q0 -180 81 -285.5t220 -105.5t220 105.5t81 285.5t-81 286t-220 106t-220 -105.5t-81 -286.5z" />
<glyph unicode="&#xf6;" horiz-adv-x="1208" d="M104 532q0 250 140 406q139 154 360 154t360 -154q140 -156 140 -407q0 -126 -37 -228t-103 -176q-139 -154 -360 -154t-360 154q-140 156 -140 405zM291 1382q0 53 35.5 87t82.5 34t83 -33.5t36 -87.5q0 -53 -36 -86.5t-83 -33.5t-82.5 33.5t-35.5 86.5zM303 532 q0 -180 81 -285.5t220 -105.5t220 105.5t81 285.5t-81 286t-220 106t-220 -105.5t-81 -286.5zM680 1382q0 53 35.5 87t83.5 34q47 0 82.5 -33.5t35.5 -87.5q0 -53 -35.5 -86.5t-82.5 -33.5t-83 33.5t-36 86.5z" />
<glyph unicode="&#xf7;" d="M109 532v162h938v-162h-938zM455 217q0 57 35.5 91t87.5 34q51 0 86.5 -34t35.5 -91t-35.5 -91t-86.5 -34t-87 34t-36 91zM455 1008q0 57 35.5 91t87.5 34q51 0 86.5 -34t35.5 -91t-35.5 -91t-86.5 -34t-87 33.5t-36 91.5z" />
<glyph unicode="&#xf8;" horiz-adv-x="1208" d="M104 532q0 250 140 406q139 154 360 154q155 0 281 -86l100 131l109 -82l-111 -144q121 -153 121 -379q0 -249 -140 -405q-139 -154 -360 -154q-162 0 -280 84l-101 -131l-108 82l110 144q-121 153 -121 380zM301 556.5q0 -157.5 43 -249.5l434 561q-74 57 -174 58 q-141 0 -222 -106t-81 -263.5zM430 195q70 -55 174 -56q141 0 222 105.5t81 287.5q0 127 -45 224z" />
<glyph unicode="&#xf9;" horiz-adv-x="1175" d="M152 467v598h190v-557q0 -195 61.5 -279t206.5 -84q68 0 134.5 8.5t76.5 12.5v899h191v-1034q-223 -54 -384 -54t-245 36t-135 101q-96 124 -96 353zM336 1468l123 121l262 -315l-96 -86z" />
<glyph unicode="&#xfa;" horiz-adv-x="1175" d="M152 467v598h190v-557q0 -195 61.5 -279t206.5 -84q68 0 134.5 8.5t76.5 12.5v899h191v-1034q-223 -54 -384 -54t-245 36t-135 101q-96 124 -96 353zM444 1274l262 315l123 -121l-289 -280z" />
<glyph unicode="&#xfb;" horiz-adv-x="1175" d="M152 467v598h190v-557q0 -195 61.5 -279t206.5 -84q68 0 134.5 8.5t76.5 12.5v899h191v-1034q-223 -54 -384 -54t-245 36t-135 101q-96 124 -96 353zM303 1282l279 293l279 -293l-80 -90l-199 180l-199 -180z" />
<glyph unicode="&#xfc;" horiz-adv-x="1175" d="M152 467v598h190v-557q0 -195 61.5 -279t206.5 -84q68 0 134.5 8.5t76.5 12.5v899h191v-1034q-223 -54 -384 -54t-245 36t-135 101q-96 124 -96 353zM269 1382q0 53 35.5 87t82.5 34t83 -33.5t36 -87.5q0 -53 -36 -86.5t-83 -33.5t-82.5 33.5t-35.5 86.5zM658 1382 q0 53 35.5 87t83.5 34q47 0 82.5 -33.5t35.5 -87.5q0 -53 -35.5 -86.5t-82.5 -33.5t-83 33.5t-36 86.5z" />
<glyph unicode="&#xfd;" horiz-adv-x="1017" d="M4 -352l35 153q64 -28 153 -28t152.5 50t114.5 163q-291 554 -426 1079h205q116 -462 303 -860q125 345 243 860h197q-152 -619 -358 -1098q-84 -189 -183 -268q-104 -84 -270 -84q-100 0 -166 33zM397 1274l262 315l123 -121l-289 -280z" />
<glyph unicode="&#xfe;" horiz-adv-x="1206" d="M164 -379v1935l190 33v-542q118 40 229.5 40t208.5 -38.5t166 -110.5q144 -152 144 -408q0 -248 -126 -399q-129 -156 -353 -156q-92 0 -163 25t-106 47v-426h-190zM354 225q35 -29 100.5 -55.5t145.5 -26.5t138.5 30t95.5 82q69 99 69 280t-92 283t-246 102 q-115 0 -211 -35v-660z" />
<glyph unicode="&#xff;" horiz-adv-x="1017" d="M4 -352l35 153q64 -28 153 -28t152.5 50t114.5 163q-291 554 -426 1079h205q116 -462 303 -860q125 345 243 860h197q-152 -619 -358 -1098q-84 -189 -183 -268q-104 -84 -270 -84q-100 0 -166 33zM222 1382q0 53 35.5 87t82.5 34t83 -33.5t36 -87.5q0 -53 -36 -86.5 t-83 -33.5t-82.5 33.5t-35.5 86.5zM611 1382q0 53 35.5 87t83.5 34q47 0 82.5 -33.5t35.5 -87.5q0 -53 -35.5 -86.5t-82.5 -33.5t-83 33.5t-36 86.5z" />
<glyph unicode="&#x152;" horiz-adv-x="2033" d="M119 711q0 348 222 542q207 181 552 181q85 0 213 -15h801v-166h-637v-428h563v-161h-563v-498h688v-166h-852q-119 -14 -250 -14t-272.5 45t-244.5 135q-220 192 -220 545zM330 711q0 -260 150 -407q150 -146 411 -146q135 0 180 10v1083q-83 11 -196 11t-217.5 -38 t-177.5 -109q-150 -147 -150 -404z" />
<glyph unicode="&#x153;" horiz-adv-x="1939" d="M104 532q0 250 140 406q139 154 360 154q129 0 230.5 -60.5t164.5 -165.5q68 115 171.5 170.5t213.5 55.5q213 0 329 -135.5t116 -407.5l-2 -49v-19h-729q25 -338 353 -338q171 0 278 52l26 -160q-35 -18 -121.5 -39t-197.5 -21q-309 0 -437 224q-134 -226 -395 -226 q-221 0 -360 154q-140 156 -140 405zM303 532q0 -180 81 -285.5t220 -105.5t220 105.5t81 285.5t-81 286t-220 106t-220 -105.5t-81 -286.5zM1102 635h528q2 129 -64.5 212t-183.5 83q-123 0 -199 -92q-68 -82 -81 -203z" />
<glyph unicode="&#x178;" horiz-adv-x="1224" d="M12 1419h234q155 -333 372 -674q219 350 373 674h221q-228 -420 -499 -846v-573h-199v569q-263 408 -502 850zM299 1701q0 53 35.5 87t82.5 34t83 -33.5t36 -87.5q0 -53 -36 -86.5t-83 -33.5t-82.5 33.5t-35.5 86.5zM688 1701q0 53 35.5 87t83.5 34q47 0 82.5 -33.5 t35.5 -87.5q0 -53 -35.5 -86.5t-82.5 -33.5t-83 33.5t-36 86.5z" />
<glyph unicode="&#x2c6;" horiz-adv-x="770" d="M106 1282l279 293l279 -293l-80 -90l-199 180l-199 -180z" />
<glyph unicode="&#x2dc;" horiz-adv-x="770" d="M47 1309q36 111 134 165q36 19 78 19q54 0 118 -31q100 -47 135 -47t64.5 29t46.5 61l98 -49q-47 -117 -134 -164q-36 -20 -78 -20q-60 0 -147 45q-72 33 -106.5 33t-64 -29t-46.5 -61z" />
<glyph unicode="&#x2000;" horiz-adv-x="954" />
<glyph unicode="&#x2001;" horiz-adv-x="1908" />
<glyph unicode="&#x2002;" horiz-adv-x="954" />
<glyph unicode="&#x2003;" horiz-adv-x="1908" />
<glyph unicode="&#x2004;" horiz-adv-x="636" />
<glyph unicode="&#x2005;" horiz-adv-x="477" />
<glyph unicode="&#x2006;" horiz-adv-x="318" />
<glyph unicode="&#x2007;" horiz-adv-x="318" />
<glyph unicode="&#x2008;" horiz-adv-x="238" />
<glyph unicode="&#x2009;" horiz-adv-x="381" />
<glyph unicode="&#x200a;" horiz-adv-x="106" />
<glyph unicode="&#x2010;" horiz-adv-x="612" d="M53 524v178h506v-178h-506z" />
<glyph unicode="&#x2011;" horiz-adv-x="612" d="M53 524v178h506v-178h-506z" />
<glyph unicode="&#x2012;" horiz-adv-x="612" d="M53 524v178h506v-178h-506z" />
<glyph unicode="&#x2013;" horiz-adv-x="1015" d="M-4 532v162h1024v-162h-1024z" />
<glyph unicode="&#x2014;" horiz-adv-x="2039" d="M-4 532v162h2048v-162h-2048z" />
<glyph unicode="&#x2018;" horiz-adv-x="481" d="M123 1065v44q0 213 143 447l148 -47q-86 -180 -86 -354q0 -46 4 -90h-209z" />
<glyph unicode="&#x2019;" horiz-adv-x="481" d="M68 1092q86 184 86 354q0 44 -4 90h208v-44q0 -206 -143 -448z" />
<glyph unicode="&#x201a;" horiz-adv-x="481" d="M68 -211q86 180 86 354q0 46 -4 90h208v-44q0 -213 -143 -447z" />
<glyph unicode="&#x201c;" horiz-adv-x="854" d="M123 1065v44q0 213 143 447l148 -47q-86 -180 -86 -354q0 -46 4 -90h-209zM496 1065v44q0 213 143 447l148 -47q-86 -180 -86 -354q0 -46 4 -90h-209z" />
<glyph unicode="&#x201d;" horiz-adv-x="854" d="M68 1092q86 184 86 354q0 44 -4 90h208v-44q0 -206 -143 -448zM441 1092q86 184 86 354q0 44 -4 90h208v-44q0 -206 -143 -448z" />
<glyph unicode="&#x201e;" horiz-adv-x="854" d="M68 -211q86 180 86 354q0 46 -4 90h208v-44q0 -213 -143 -447zM441 -211q86 180 86 354q0 46 -4 90h208v-44q0 -213 -143 -447z" />
<glyph unicode="&#x2022;" horiz-adv-x="737" d="M106 723q0 109 71 182q76 78 192 78q115 0 191 -78q71 -73 71 -183q0 -52 -18.5 -99.5t-52.5 -82.5q-76 -77 -191 -77q-116 0 -192 77q-71 73 -71 183z" />
<glyph unicode="&#x2026;" horiz-adv-x="2039" d="M201 111q0 55 36.5 96t100.5 41q63 0 100 -41t37 -96t-37 -96.5t-100 -41.5t-100 41t-37 97zM883 111q0 55 36.5 96t100.5 41q63 0 100 -41t37 -96t-37 -96.5t-100 -41.5t-100 41t-37 97zM1565 111q0 55 36.5 96t100.5 41q63 0 100 -41t37 -96t-37 -96.5t-100 -41.5 t-100 41t-37 97z" />
<glyph unicode="&#x202f;" horiz-adv-x="381" />
<glyph unicode="&#x2039;" horiz-adv-x="595" d="M61 582l320 452l133 -71l-227 -381l227 -381l-133 -72z" />
<glyph unicode="&#x203a;" horiz-adv-x="595" d="M82 201l227 381l-227 381l133 71l320 -452l-320 -453z" />
<glyph unicode="&#x205f;" horiz-adv-x="477" />
<glyph unicode="&#x20ac;" d="M92 465v147h168q-2 23 -2 48v106q0 27 2 53h-168v148h189q47 240 186 359.5t356 119.5q132 0 269 -41l-41 -164q-112 41 -209 41t-155 -22.5t-100 -63.5q-78 -76 -110 -229h477l-28 -148h-469q-2 -27 -2 -53v-106q0 -25 2 -48h428l-29 -147h-383q35 -182 126 -254 t230 -72t258 56l41 -162q-35 -18 -120.5 -39t-190.5 -21q-240 0 -371 130t-170 362h-184z" />
<glyph unicode="&#x2122;" horiz-adv-x="1554" d="M47 1294v125h571v-125h-215v-557h-141v557h-215zM647 737q34 535 58 682h135q20 -44 71.5 -146t81 -161t58.5 -115l211 422h135q23 -152 57 -682h-143q-2 51 -4 109.5t-5 117.5q-8 122 -16 222q-26 -45 -76.5 -145.5t-74 -145.5t-35.5 -72h-101q-12 27 -35.5 72t-49.5 96 q-45 91 -101 195q-14 -177 -18 -287.5t-7 -161.5h-141z" />
<glyph unicode="&#xe000;" horiz-adv-x="1064" d="M0 0v1065h1065v-1065h-1065z" />
</font>
</defs>
</svg>
